Welcome Guest ( Log In | Register )

> Releases Upload / Добавление релизов

Добавить релиз тут / Click here to add release
Рекомендованные обменники / Recommended file shares

> Saqqara - Második Csapás (2019), Heavy/Power Metal (D4)
post Nov 8 2019, 09:44:50
Post #1

MDM-Thrash Metal
**************
Group: Металариец
Posts: 9,052
Releases: 734
From: Одесса
On Forums: 12 years 3 months
Thanks: 19698 time(s)
Ukraine


(IMG:http://metalarea.org/images/audiocovers/2019_Nov/acov_tid330024_thumb.jpg)

*Artist: Saqqara
*Album: Második Csapás
*Year: 2019
*Genre: Heavy/Power Metal
*Country: Hungary (IMG:http://metalarea.org/forum/style_images/flags/Hungary.png)
*Format: mp3@CBR320kbps
*Size: 88MB

Tracklist:
1. Fáraó átka
2. Szabadnak születtem
3. Ölelj át újra
4. Ördögűző
5. Hiába futsz
6. Farkas
7. Tisztítótűz
8. Egy új világot
9. Bűnben égve
******************************
Total playing time: 36:36


(IMG:http://metalarea.org/images/youtube.png)

Technical info
(IMG:http://metalarea.org/images/spectrogram/2019_Nov/2c38c3b21a7f7004c0e0eff906831d42.png)
Input File: 02 - Szabadnak születtem.mp3
Channels : 2
Sample Rate : 44100
Precision : 16-bit
Duration : 00:04:29.29 = 11875601 samples = 20196.6 CDDA sectors
File Size : 11.0M
Bit Rate : 327k
Sample Encoding: MPEG audio (layer I, II or III)
Comments :
Title=Szabadnak születtem
Artist=Saqqara
Album=Második csapás
Tracknumber=2
Year=2019
Genre=Heavy Metal
Discnumber=1



Register


Go to the top of the page
  Insert nick Quick quote
+Quote Post
 
Start new topic
Replies (1 - 1)
post Nov 8 2019, 15:02:41
Post #2

MDM-Thrash Metal
**************
Group: Металариец
Posts: 9,052
Releases: 734
From: Одесса
On Forums: 12 years 3 months
Thanks: 19698 time(s)
Ukraine


Cloud Mail 320:
Register
Go to the top of the page
  Insert nick Quick quote
+Quote Post

Reply to this topicStart new topic
2 User(s) are reading this topic (2 Guests and 0 Anonymous Users)
0 Members:

 



- Lo-Fi Version Support form
Copyrights and abuse reports form
Time is now: 13th November 2019 - 20:19:33