Welcome Guest ( Log In | Register )

> Releases Upload / Добавление релизов

Добавить релиз тут / Click here to add release
Рекомендованные обменники / Recommended file shares

> Trephine - A Nightcap Of Endless Suffering (2019), Death/Groove/Thrash Metal
post Nov 8 2019, 09:55:43
Post #1

MDM-Thrash Metal
**************
Group: Металариец
Posts: 9,072
Releases: 740
From: Одесса
On Forums: 12 years 3 months
Thanks: 19792 time(s)
Ukraine


(IMG:http://metalarea.org/images/audiocovers/2019_Nov/acov_tid330025.jpg)

*Artist: Trephine
*Album: A Nightcap Of Endless Suffering
*Year: 2019
*Genre: Death/Groove/Thrash Metal
*Country: United States (IMG:http://metalarea.org/forum/style_images/flags/United%20States.png)
*Format: mp3@CBR320kbps
*Size: 97MB

Tracklist:
1. A Nightcap of Endless Suffering
2. Stained Red With Slaughter
3. Ingested and Enslaved
4. Crucif**ked
5. 80/20
6. Bastinado
7. Pieces of You (On My Skin)
8. We're All Pale
9. Abyssal Plane
10. This Is the End
******************************
Total playing time: 35:21


(IMG:http://metalarea.org/images/youtube.png)
(IMG:http://metalarea.org/images/youtube.png)
(IMG:http://metalarea.org/images/youtube.png)


Technical info
(IMG:http://metalarea.org/images/spectrogram/2019_Nov/40286a0e50de42dc81a3c9950bb53965.png)
Input File: 02 - Stained Red With Slaughter.mp3
Channels : 2
Sample Rate : 44100
Precision : 16-bit
Duration : 00:02:57.88 = 7844508 samples = 13341 CDDA sectors
File Size : 7.49M
Bit Rate : 337k
Sample Encoding: MPEG audio (layer I, II or III)
Comments :
Title=Stained Red With Slaughter
Artist=Trephine
Album=A Nightcap of Endless Suffering
Tracknumber=2
Year=2019
Genre=Death Metal
Discnumber=1



Register


Go to the top of the page
  Insert nick Quick quote
+Quote Post
 
Start new topic
Replies (1 - 1)
post Nov 8 2019, 15:03:45
Post #2

MDM-Thrash Metal
**************
Group: Металариец
Posts: 9,072
Releases: 740
From: Одесса
On Forums: 12 years 3 months
Thanks: 19792 time(s)
Ukraine


Cloud Mail 320:
Register


Thanks:
(1) boby9052,
Go to the top of the page
  Insert nick Quick quote
+Quote Post

Reply to this topicStart new topic
1 User(s) are reading this topic (1 Guests and 0 Anonymous Users)
0 Members:

 



- Lo-Fi Version Support form
Copyrights and abuse reports form
Time is now: 18th November 2019 - 09:12:23