Welcome Guest ( Log In | Register )

> Releases Upload / Добавление релизов

Добавить релиз тут / Click here to add release
Рекомендованные обменники / Recommended file shares

> Reign Of Fury - Exorcise Reality (2019), Heavy/Thrash Metal
post Nov 8 2019, 10:43:33
Post #1

Правь статус, ####!111
**************
Group: Металариец
Posts: 19,451
Releases: 13151
From: Г.Харьков
On Forums: 7 years 6 months
Thanks: 226868 time(s)
Unknown


(IMG:http://metalarea.org/images/audiocovers/2019_Nov/acov_tid330026_thumb.jpg)

*Artist: Reign Of Fury
*Album: Exorcise Reality
*Year: 2019
*Genre: Heavy/Thrash Metal
*Country: United Kingdom (IMG:http://metalarea.org/forum/style_images/flags/United%20Kingdom.png)
*Format: mp3@CBR320kbps
*Size: 104MB

Tracklist:
1. To Fight And Conquer 05:08
2. I May Be A Bastard, But I'm Not A Fucking Bastard 04:19
3. Addiction Hymn 06:32
4. CapitalJism 05:59
5. Destroy The Night 04:00
6. Haunt The Murderer 05:04
7. The World Belongs To Me 05:16
8. Exorcise Reality 06:32
******************************
Total playing time: 42:50


(IMG:http://metalarea.org/images/youtube.png)

Extended info
Magic Dave Drums
See also: Severenth
Jon Priestley Guitars (lead)
Bison Steed Vocals (lead)
Chris Musgrove Bass (2016-present)
See also: ex-Malacite, ex-The Mighty Wraith, ex-Guts for Glory
Joey Jaycock Guitars (lead) (2017-present)
See also: Conscript, From Eden to Exile, ex-Apparitions of the End, ex-Bludvera


Technical info
(IMG:http://metalarea.org/images/spectrogram/2019_Nov/943913a483f2ce43831063e3bfc1270b.png)
Input File: 03 Addiction Hymn.mp3
Channels : 2
Sample Rate : 44100
Precision : 16-bit
Duration : 00:06:34.60 = 17401904 samples = 29595.1 CDDA sectors
File Size : 16.5M
Bit Rate : 335k
Sample Encoding: MPEG audio (layer I, II or III)
Comments :
Title=Addiction Hymn
Artist=Reign Of Fury
Album=Exorcise Reality
Tracknumber=3/8
Year=2019
Genre=Metal
Discnumber=1/1



Register


Go to the top of the page
  Insert nick Quick quote
+Quote Post
 
Start new topic
Replies (1 - 1)
post Nov 11 2019, 21:37:54
Post #2

Литр
*
Group: Подсевший
Posts: 87
Releases: 0
On Forums: 1 year 8 hours
Thanks: 30 time(s)
Russian Federation


Два прошлых альбома были эпичнее, здесь как на расслабоне.
Go to the top of the page
  Insert nick Quick quote
+Quote Post

Reply to this topicStart new topic
2 User(s) are reading this topic (2 Guests and 0 Anonymous Users)
0 Members:

 



- Lo-Fi Version Support form
Copyrights and abuse reports form
Time is now: 13th November 2019 - 20:19:57