Welcome Guest ( Log In | Register )

> Releases Upload / Добавление релизов

Добавить релиз тут / Click here to add release
Рекомендованные обменники / Recommended file shares

> Sepultura - Isolation [single] (2019), Groove/Thrash Metal
post Nov 8 2019, 10:58:03
Post #1

Правь статус, ####!111
**************
Group: Металариец
Posts: 44,147
Releases: 679
On Forums: 10 years 5 months
Thanks: 35413 time(s)
Russian Federation


(IMG:https://metalarea.org/images/audiocovers/2019_Nov/acov_tid330027_thumb.jpg)

*Artist: Sepultura
*Album: Isolation [single]
*Year: 2019
*Genre: Groove/Thrash Metal
*Country: Brazil (IMG:https://metalarea.org/forum/style_images/flags/Brazil.png)
*Format: mp3@CBR320kbps
*Size: 11MB

Tracklist:
1. Isolation 04:56
******************************
Total playing time: 4:56

(IMG:https://metalarea.org/images/youtube.png)

Technical info
(IMG:https://metalarea.org/images/spectrogram/2019_Nov/08b09f2440dd2dbe7a0962aa74137588.png)
Input File: Sepultura - Isolation.mp3
Channels : 2
Sample Rate : 44100
Precision : 16-bit
Duration : 00:04:55.91 = 13049411 samples = 22192.9 CDDA sectors
File Size : 11.8M
Bit Rate : 320k
Sample Encoding: MPEG audio (layer I, II or III)
Comments :
Title=Isolation
Artist=Sepultura
Album=Isolation
Tracknumber=01/01
Year=2019
Discnumber=1/1



Register


Go to the top of the page
  Insert nick Quick quote
+Quote Post
2 Pages V  < 1 2  
Start new topic
Replies (30 - 37)
post Nov 10 2019, 00:25:53
Post #31

Ледоруб
**************
Group: Металариец
Posts: 23,396
Releases: 0
From: Санкт-Петербург
On Forums: 10 years 2 months
Thanks: 7818 time(s)
Russian Federation


Хорошо, говно некстати. Так даже правдивее.
Go to the top of the page
  Insert nick Quick quote
+Quote Post
post Nov 10 2019, 01:12:33
Post #32

Правь статус, ####!111
**************
Group: Металариец
Posts: 44,147
Releases: 679
On Forums: 10 years 5 months
Thanks: 35413 time(s)
Russian Federation


ЦИТАТА(6666666 @ Nov 10 2019, 02:25:53) *
Хорошо, говно некстати. Так даже правдивее.


Опять говоришь неправду.
Go to the top of the page
  Insert nick Quick quote
+Quote Post
post Nov 10 2019, 06:29:07
Post #33

Маньяк
**********
Group: Металариец
Posts: 1,314
Releases: 3
From: Новороссия
On Forums: 13 years 9 months
Thanks: 721 time(s)
Russian Federation


После Roots все альбомы не отличаются друг от друга, нет ни одного запоминающегося трэка, и ещё этот ниггер на вокале, чё, белого найти не могли, на крайний случай индейца бы из джунглей взяли, но не ниггера же брать.


Thanks:
(1) Фо,
Go to the top of the page
  Insert nick Quick quote
+Quote Post
post Nov 10 2019, 10:49:05
Post #34

Шесть Литров
******
Group: Металариец
Posts: 525
Releases: 0
On Forums: 1 year 4 months
Thanks: 459 time(s)
Unknown


ЦИТАТА(Glioma @ Nov 10 2019, 12:29:07) *
и ещё этот ниггер на вокале, чё, белого найти не могли, на крайний случай индейца бы из джунглей взяли, но не ниггера же брать.

*facepalm.jpg*
Go to the top of the page
  Insert nick Quick quote
+Quote Post
post Nov 10 2019, 12:15:55
Post #35

Ледоруб
**************
Group: Металариец
Posts: 23,396
Releases: 0
From: Санкт-Петербург
On Forums: 10 years 2 months
Thanks: 7818 time(s)
Russian Federation


ЦИТАТА(Glioma @ 10th November 2019 - 08:29:07) *
но не ниггера же брать.

А в чём проблема?
Go to the top of the page
  Insert nick Quick quote
+Quote Post
post Nov 14 2019, 20:22:46
Post #36

Full-of-Hate
**************
Group: Металариец
Posts: 3,275
Releases: 0
From: Moscow
On Forums: 10 years 4 months
Thanks: 2846 time(s)
Russian Federation


Ну, им же надо что-то сочинять... За творчеством не слежу, но по субъективным ощущениям это типичная новая сепультура в собственном соку. Выводы будем делать после выхода релиза.
Go to the top of the page
  Insert nick Quick quote
+Quote Post
post Nov 14 2019, 20:29:28
Post #37

Ледоруб
**************
Group: Металариец
Posts: 23,396
Releases: 0
From: Санкт-Петербург
On Forums: 10 years 2 months
Thanks: 7818 time(s)
Russian Federation


ЦИТАТА(FullofHate @ 14th November 2019 - 22:22:46) *
это типичная новая сепультура в собственном соку

Только по вокалу.
Go to the top of the page
  Insert nick Quick quote
+Quote Post
post Nov 14 2019, 20:41:56
Post #38

brutalcesar
**************
Group: Металариец
Posts: 17,778
Releases: 67
From: Рязань
On Forums: 10 years 10 months
Thanks: 9367 time(s)
Russian Federation


Если бы не натужно-скрипящий вокал, то почти интересно. Могло бы быть!
Go to the top of the page
  Insert nick Quick quote
+Quote Post

2 Pages V  < 1 2
Reply to this topicStart new topic
2 User(s) are reading this topic (2 Guests and 0 Anonymous Users)
0 Members:

 



- Lo-Fi Version Support form
Copyrights and abuse reports form
Time is now: 20th November 2019 - 10:45:27