Welcome Guest ( Log In | Register )

> Releases Upload / Добавление релизов

Добавить релиз тут / Click here to add release
Рекомендованные обменники / Recommended file shares

 
Reply to this topicStart new topic
> Sankt Velten - The Discreet Charm Of Evil (2019), Heavy Metal
post Nov 8 2019, 11:08:27
Post #1

Правь статус, ####!111
**************
Group: Металариец
Posts: 19,524
Releases: 13212
From: Г.Харьков
On Forums: 7 years 6 months
Thanks: 227805 time(s)
Unknown


(IMG:http://metalarea.org/images/audiocovers/2019_Nov/acov_tid330028_thumb.jpg)

*Artist: Sankt Velten
*Album: The Discreet Charm Of Evil
*Year: 2019
*Genre: Heavy Metal
*Country: Germany (IMG:http://metalarea.org/forum/style_images/flags/Germany.png)
*Format: mp3@CBR320kbps
*Size: 121MB

Tracklist:
01. Dancing in Purgatory
02. Sex in a Microwave
03. I Won't Die Again
04. Mano Cornuta
05. Back into the Fire
06. The Discreet Charm of Evil (Album Version)
07. God's for Sale
08. Do Penance
09. Warporn
10. Postcards from Hell
******************************
Total playing time: 51:54

Preview 1


Extended info
Catharina Wasner
Dimitri Mitridanes


Technical info
(IMG:http://metalarea.org/images/spectrogram/2019_Nov/60fd618a2101b91133e1238c968538a8.png)
Input File: 04 Mano Cornuta.mp3
Channels : 2
Sample Rate : 44100
Precision : 16-bit
Duration : 00:05:27.02 = 14421494 samples = 24526.4 CDDA sectors
File Size : 13.3M
Bit Rate : 326k
Sample Encoding: MPEG audio (layer I, II or III)
Comments :
Title=Mano Cornuta
Artist=Sankt Velten
Album=The Discreet Charm Of Evil
Tracknumber=4/10
Year=2019
Genre=Heavy Metal
Discnumber=1/1



Register


Go to the top of the page
  Insert nick Quick quote
+Quote Post

Reply to this topicStart new topic
1 User(s) are reading this topic (1 Guests and 0 Anonymous Users)
0 Members:

 



- Lo-Fi Version Support form
Copyrights and abuse reports form
Time is now: 18th November 2019 - 10:47:03