Welcome Guest ( Log In | Register )

> Releases Upload / Добавление релизов

Добавить релиз тут / Click here to add release
Рекомендованные обменники / Recommended file shares

 
Reply to this topicStart new topic
> Black Heiron - Kicking & Screaming (2019), Heavy Metal
post Nov 8 2019, 11:35:17
Post #1

Правь статус, ####!111
**************
Group: Металариец
Posts: 19,524
Releases: 13212
From: Г.Харьков
On Forums: 7 years 6 months
Thanks: 227795 time(s)
Unknown


(IMG:http://metalarea.org/images/audiocovers/2019_Nov/acov_tid330029_thumb.jpg)

*Artist: Black Heiron
*Album: Kicking & Screaming
*Year: 2019
*Genre: Heavy Metal
*Country: United States (IMG:http://metalarea.org/forum/style_images/flags/United%20States.png)
*Format: mp3@CBR320kbps
*Size: 97MB

Tracklist:
1. Feel The Heat 03:50
2. Outlaws Of The Street 03:17
3. Judgement Day 05:27
4. Killin' Time 04:36
5. Crimson Slaughter 04:13
6. Kicking And Screaming 03:21
7. Lake Monster 04:47
8. Panic Attack 02:13
9. Local Wars 05:07
10. Funky Bunch 01:45
******************************
Total playing time: 38:36




Extended info
Aaron Kozlowski
David Cwik
Jordan Stec
Kevin Kreinbring


Technical info
(IMG:http://metalarea.org/images/spectrogram/2019_Nov/5c8f7afc10a22648d1fd0980c10a1b35.png)
Input File: 03 Judgement Day.mp3
Channels : 2
Sample Rate : 44100
Precision : 16-bit
Duration : 00:05:27.83 = 14457215 samples = 24587.1 CDDA sectors
File Size : 13.9M
Bit Rate : 340k
Sample Encoding: MPEG audio (layer I, II or III)
Comments :
Title=Judgement Day
Artist=Black Heiron
Album=Kicking & Screaming
Tracknumber=3/10
Year=2019
Genre=Heavy Metal
Discnumber=1/1



Register


Go to the top of the page
  Insert nick Quick quote
+Quote Post

Reply to this topicStart new topic
1 User(s) are reading this topic (1 Guests and 0 Anonymous Users)
0 Members:

 



- Lo-Fi Version Support form
Copyrights and abuse reports form
Time is now: 18th November 2019 - 09:34:12