Welcome Guest ( Log In | Register )

> Releases Upload / Добавление релизов

Добавить релиз тут / Click here to add release
Рекомендованные обменники / Recommended file shares

 
Reply to this topicStart new topic
> Nmlss_Vgr - Vgr77 [demo] (2019), Atmospheric/Ambient Black Metal
post Nov 8 2019, 12:22:53
Post #1

Group: Дух
Posts: 19
Releases: 15
On Forums: 1 week 3 days
Thanks: 173 time(s)
Unknown


(IMG:http://metalarea.org/images/audiocovers/2019_Nov/acov_tid330032_thumb.jpg)

*Artist: Nmlss_Vgr
*Album: Vgr77 [demo]
*Year: 2019
*Genre: Atmospheric/Ambient Black Metal
*Country: Germany (IMG:http://metalarea.org/forum/style_images/flags/Germany.png)
*Format: mp3@CBR320kbps
*Size: 39MB

Tracklist:
01. VGR77 (Solar System) 09:35
02. VGR77 (Outer Space) 07:15
******************************
Total playing time: 16:50



Extended info
Space black metal from North Rhine-Westphalia, Germany; formed by NONAME_1.


Technical info
(IMG:http://metalarea.org/images/spectrogram/2019_Nov/431423619590343e352d5e40b06f54f8.png)
Input File: 01. VGR77 (Solar System).mp3
Channels : 2
Sample Rate : 44100
Precision : 16-bit
Duration : 00:09:35.75 = 25390443 samples = 43181 CDDA sectors
File Size : 23.2M
Bit Rate : 322k
Sample Encoding: MPEG audio (layer I, II or III)
Comments :
Title=VGR77 (Solar System)
Artist=NMLSS_VGR
Album=VGR77
Tracknumber=01
Year=2019



Register


Go to the top of the page
  Insert nick Quick quote
+Quote Post

Reply to this topicStart new topic
1 User(s) are reading this topic (1 Guests and 0 Anonymous Users)
0 Members:

 



- Lo-Fi Version Support form
Copyrights and abuse reports form
Time is now: 18th November 2019 - 10:26:02