Welcome Guest ( Log In | Register )

> Releases Upload / Добавление релизов

Добавить релиз тут / Click here to add release
Рекомендованные обменники / Recommended file shares

 
Reply to this topicStart new topic
> Spectral - Between Life And Death (2019), Thrash Metal
post Nov 8 2019, 12:49:01
Post #1

Правь статус, ####!111
**************
Group: Металариец
Posts: 19,452
Releases: 13151
From: Г.Харьков
On Forums: 7 years 6 months
Thanks: 226887 time(s)
Unknown


(IMG:http://metalarea.org/images/audiocovers/2019_Nov/acov_tid330033_thumb.jpg)

*Artist: Spectral
*Album: Between Life And Death
*Year: 2019
*Genre: Thrash Metal
*Country: Colombia (IMG:http://metalarea.org/forum/style_images/flags/Colombia.png)
*Format: mp3@CBR320kbps
*Size: 64MB

Tracklist:
1. Morbid Atrocity 03:39
2. Reach of Doom 04:44
3. Thrashing With Hell Fire 03:25
4. Firing Squad 03:26
5. Spectral 03:38
6. Victim(izer) 03:58
7. Hereje 05:03
******************************
Total playing time: 27:53




Extended info
Freeman Bass, Vocals
Hector Drums
See also: Border Terror
Jr. Guitars
Tabares Guitars
Santiago Vocals
See also: Bullets


Technical info
(IMG:http://metalarea.org/images/spectrogram/2019_Nov/162b1231320b6b3c6eeee4742221b400.png)
Input File: 02 - Reach of Doom.mp3
Channels : 2
Sample Rate : 44100
Precision : 16-bit
Duration : 00:04:44.36 = 12540188 samples = 21326.9 CDDA sectors
File Size : 11.5M
Bit Rate : 323k
Sample Encoding: MPEG audio (layer I, II or III)
Comments :
Title=Reach of Doom
Artist=Spectral
Album=Between Life and Death
Tracknumber=2
Year=2019-11-03
Discnumber=1



Register


Go to the top of the page
  Insert nick Quick quote
+Quote Post

Reply to this topicStart new topic
2 User(s) are reading this topic (2 Guests and 0 Anonymous Users)
0 Members:

 



- Lo-Fi Version Support form
Copyrights and abuse reports form
Time is now: 13th November 2019 - 21:23:06