Welcome Guest ( Log In | Register )

> Releases Upload / Добавление релизов

Добавить релиз тут / Click here to add release
Рекомендованные обменники / Recommended file shares

 
Reply to this topicStart new topic
> Oniric Prison - Oniric Prison [ep] (2019), Thrash/Death Metal
post Nov 8 2019, 13:26:13
Post #1

Правь статус, ####!111
**************
Group: Металариец
Posts: 19,524
Releases: 13212
From: Г.Харьков
On Forums: 7 years 6 months
Thanks: 227805 time(s)
Unknown


(IMG:http://metalarea.org/images/audiocovers/2019_Nov/acov_tid330034_thumb.jpg)

*Artist: Oniric Prison
*Album: Oniric Prison [ep]
*Year: 2019
*Genre: Thrash/Death Metal
*Country: Spain (IMG:http://metalarea.org/forum/style_images/flags/Spain.png)
*Format: mp3@CBR320kbps
*Size: 42MB

Tracklist:
1. Blood Manifest 02:18
2. Private Hell 03:25
3. The Unknown 04:11
4. Reality Overdose 03:58
5. Beyond the Grave 04:15
******************************
Total playing time: 18:07



Extended info
Gerardo Díaz - Vocals & Guitars
Francisco Benitez - Guitars & Backing vocals
Chema Sillero - Bass & Backing vocals
Javier Quirosa - Drums


Technical info
(IMG:http://metalarea.org/images/spectrogram/2019_Nov/67b8c28be15eb5154a18820db7c2367c.png)
Input File: 03 - The Unknown.mp3
Channels : 2
Sample Rate : 44100
Precision : 16-bit
Duration : 00:04:12.02 = 11113950 samples = 18901.3 CDDA sectors
File Size : 10.2M
Bit Rate : 325k
Sample Encoding: MPEG audio (layer I, II or III)
Comments :
Title=The Unknown
Artist=Oniric Prison
Album=Oniric Prison
Tracknumber=3
Year=2019-10-27
Genre=Metal
Discnumber=1



Register


Go to the top of the page
  Insert nick Quick quote
+Quote Post

Reply to this topicStart new topic
1 User(s) are reading this topic (1 Guests and 0 Anonymous Users)
0 Members:

 



- Lo-Fi Version Support form
Copyrights and abuse reports form
Time is now: 18th November 2019 - 10:42:36