Welcome Guest ( Log In | Register )

> Releases Upload / Добавление релизов

Добавить релиз тут / Click here to add release
Рекомендованные обменники / Recommended file shares

> Nmlss_Vgr - 011000110110111101110011011011010110111101110011 [demo] (2019), Atmospheric/Ambient Black Metal
post Nov 8 2019, 14:14:20
Post #1

Group: Дух
Posts: 19
Releases: 15
On Forums: 1 week 3 days
Thanks: 173 time(s)
Unknown


(IMG:http://metalarea.org/images/audiocovers/2019_Nov/acov_tid330035_thumb.jpg)

*Artist: Nmlss_Vgr
*Album: 011000110110111101110011011011010110111101110011 [demo]
*Year: 2019
*Genre: Atmospheric/Ambient Black Metal
*Country: Germany (IMG:http://metalarea.org/forum/style_images/flags/Germany.png)
*Format: mp3@CBR320kbps
*Size: 90MB

Tracklist:
01. Death is Happiness 07:12
02. I Think Cosmos Is Not For You, Lazy Human 08:18
03. Gagarin, Sorry, We Totally Fucked Up 05:28
04. So Long 2 Minutes 56 Seconds, So Short My Life To See Russians On Moon 02:56
05. Through The Great Nothing 15:33
******************************
Total playing time: 39:27



Extended info
Space black metal from North Rhine-Westphalia, Germany; formed by NONAME_1. The album's title is "cosmos" in binary.


Technical info
(IMG:http://metalarea.org/images/spectrogram/2019_Nov/15f6ac238ebc1e9ccf3a57ca8295a0c2.png)
Input File: 04. So Long 2 Minutes 56 Seconds, So Short My Life To See Russians On Moon.mp3
Channels : 2
Sample Rate : 44100
Precision : 16-bit
Duration : 00:02:56.73 = 7793837 samples = 13254.8 CDDA sectors
File Size : 7.21M
Bit Rate : 326k
Sample Encoding: MPEG audio (layer I, II or III)
Comments :
Title=So Long 2 Minutes 56 Seconds, So Short My Life To See Russians On Moon
Artist=NMLSS_VGR
Album=011000110110111101110011011011010110111101110011
Tracknumber=04
Year=2019



Register


Go to the top of the page
  Insert nick Quick quote
+Quote Post
 
Start new topic
Replies (1 - 5)
post Nov 8 2019, 14:49:39
Post #2

Правь статус, ####!111
**************
Group: Металариец
Posts: 44,064
Releases: 674
On Forums: 10 years 5 months
Thanks: 35350 time(s)
Russian Federation


ЦИТАТА(sundowning @ Nov 8 2019, 16:14:20) *
03. Gagarin, Sorry, We Totally Fucked Up 05:28


(IMG:style_emoticons/default/15.gif)

Юра, мы все продолбали (IMG:style_emoticons/default/1488.gif)

Молодцы фрицы (IMG:style_emoticons/default/25.gif)


Thanks:
Go to the top of the page
  Insert nick Quick quote
+Quote Post
post Nov 8 2019, 15:23:57
Post #3

De Mysteriis Dom Sathanas
**************
Group: Металариец
Posts: 3,720
Releases: 63
From: Doom
On Forums: 11 years 4 months
Thanks: 3135 time(s)
Russian Federation


На бк внизу еще больше нулей и единиц (IMG:style_emoticons/default/1488.gif)
Go to the top of the page
  Insert nick Quick quote
+Quote Post
post Nov 8 2019, 16:20:12
Post #4

Литр
*
Group: Подсевший
Posts: 62
Releases: 0
On Forums: 4 years 8 months
Thanks: 23 time(s)
Unknown


ЦИТАТА(Coroner @ 8th November 2019 - 16:17:49) *
Ну, во-первых, не фрицевское это дело, а во-вторых - не знаю, мы, вроде, ничего не профукивали.

Можно вопрос задать? Начиная с какого года ты об этом судишь?


Thanks:
Go to the top of the page
  Insert nick Quick quote
+Quote Post
post Nov 8 2019, 16:27:53
Post #5

Литр
*
Group: Подсевший
Posts: 62
Releases: 0
On Forums: 4 years 8 months
Thanks: 23 time(s)
Unknown


ЦИТАТА(Coroner @ 8th November 2019 - 16:23:55) *
А с какого года автор альбома судит? Или вопрос только ко мне, к нему вопросов нет?

Вопрос был к тебе. Да впрочем это уже и неважно. Поскольку автор альбома здесь совершенно ни при чем. Это еще до него было известно, что мы все просрали, ...даже нам самим.
Извини Юра
И уж кому, как не Германии нас судить, нами же их победивших. Уж они то уж точно в курсе какие мы были и что с нами сейчас стало.
Go to the top of the page
  Insert nick Quick quote
+Quote Post
post Nov 8 2019, 16:41:29
Post #6

Литр
*
Group: Подсевший
Posts: 62
Releases: 0
On Forums: 4 years 8 months
Thanks: 23 time(s)
Unknown


ЦИТАТА(Coroner @ 8th November 2019 - 16:38:04) *
показывают только то, что их авторы и их поддерживающие, просрали самих себя.

Ты всего лишь сейчас своей фразой привел один мизерный пример из того, что мы прое. С 1969 года и до 1990 почему-то никто не писал подобного. Не знаешь почему? Подумай как следует. И дело совсем не в картинках. Если бы не ленился то почитал бы по ссылкам. Да, да. Там еще ссылки есть. Чуть пониже.
Go to the top of the page
  Insert nick Quick quote
+Quote Post

Reply to this topicStart new topic
1 User(s) are reading this topic (1 Guests and 0 Anonymous Users)
0 Members:

 



- Lo-Fi Version Support form
Copyrights and abuse reports form
Time is now: 18th November 2019 - 09:29:18