Welcome Guest ( Log In | Register )

> Releases Upload / Добавление релизов

Добавить релиз тут / Click here to add release
Рекомендованные обменники / Recommended file shares

 
Reply to this topicStart new topic
> Quayde Lahüe - Love Out Of Darkness (2019), Heavy Metal/Hard Rock
post Nov 8 2019, 15:23:51
Post #1

Каждое ваше "Спасибо" помогает мне понять, что я делаю новости не напрасно.
**************
Group: Металариец
Posts: 2,035
Releases: 1782
From: Одесса
On Forums: 11 years 5 months
Thanks: 15523 time(s)
Ukraine


(IMG:http://metalarea.org/images/audiocovers/2019_Nov/acov_tid330038_thumb.jpg)

*Artist: Quayde Lahüe
*Album: Love Out Of Darkness
*Year: 2019
*Genre: Heavy Metal/Hard Rock
*Country: United States (IMG:http://metalarea.org/forum/style_images/flags/United%20States.png)
*Format: mp3@CBR320kbps
*Size: 84MB

Tracklist:
1.Give Me Your Love (Don't Take Mine) 03:53
2.Man in the Purple Robe 05:00
3.Heart of Stone 04:53
4.Warrior 05:21
5.Before the Storm 04:25
6.Widowmaker 05:42
7.Fallout 01:25
8.It Still Burns 04:45
9.Right to Rock 02:57
******************************
Total playing time: 38:21



Extended info
Line - up:

Reuben W. Storey - Bass (Christian Mistress, ex-Funerot, ex-Moldy Castle, ex-Omnicrom, ex-Gun Outfit)
Peter David Connelly - Drums
Jonny Wulf - Guitars (Christian Mistress)
Tim Diedrich - Guitars (Christian Mistress, ex-Silver Chrome, ex-Modus, ex-Power Castle, ex-Prophets of Addiction, ex-The Hard Way, ex-The Speed of Darkness, ex-Yasmine)
Jenna Fitton - Vocals
Max Bowman - Guitars (Caustic Wound, Mortiferum, Tony Molina Band (live), ex-Bone Sickness, ex-Triumvir Foul (live))

(IMG:https://www.metal-archives.com/images/3/5/4/0/3540423122_photo.jpg?4943)


Technical info
(IMG:http://metalarea.org/images/spectrogram/2019_Nov/924c6957323f25058e5a351cba1dfc50.png)
Input File: 08-quayde_lahue-it_still_burns-354cd504.mp3
Channels : 2
Sample Rate : 44100
Precision : 16-bit
Duration : 00:04:44.60 = 12550684 samples = 21344.7 CDDA sectors
File Size : 11.4M
Bit Rate : 320k
Sample Encoding: MPEG audio (layer I, II or III)
Comments :
Title=It Still Burns
Artist=Quayde LaHüe
Album=Love Out Of Darkness
Tracknumber=8
Year=2019
Genre=Heavy Metal/Hard Rock



Register


Go to the top of the page
  Insert nick Quick quote
+Quote Post

Reply to this topicStart new topic
2 User(s) are reading this topic (2 Guests and 0 Anonymous Users)
0 Members:

 



- Lo-Fi Version Support form
Copyrights and abuse reports form
Time is now: 13th November 2019 - 20:52:45