Welcome Guest ( Log In | Register )

> Releases Upload / Добавление релизов

Добавить релиз тут / Click here to add release
Рекомендованные обменники / Recommended file shares

> Aeon Of Disease - Edge Of Purgatory [ep] (2019), Death Metal
post Nov 8 2019, 16:09:33
Post #1

Serial Uploader
Group Icon
Group: V.I.P
Posts: 36,461
Releases: 34651
From: Lithuania
On Forums: 11 years 5 months
Thanks: 404803 time(s)
Lithuania


(IMG:https://metalarea.org/images/audiocovers/2019_Nov/acov_tid330046_thumb.jpg)

*Artist: Aeon Of Disease
*Album: Edge Of Purgatory [ep]
*Year: 2019
*Genre: Death Metal
*Country: Germany (IMG:https://metalarea.org/forum/style_images/flags/Germany.png)
*Format: mp3@CBR320kbps
*Size: 69MB

Tracklist:
01. Edge Of Purgatory 03:07
02. Artifacts 04:07
03. Ominous Signs 04:01
04. A New Age Of Terror 03:13
05. Global Suicide 02:43
06. Fathomless Instincts 03:32
07. Schizophrenia 03:31
08. Iron Domination 03:25
******************************
Total playing time: 27:39


(IMG:https://metalarea.org/images/youtube.png)

Technical info
(IMG:https://metalarea.org/images/spectrogram/2019_Nov/9d1a3c4f2ea7238900084d5bec519b30.png)
Input File: 02. Artifacts.mp3
Channels : 2
Sample Rate : 44100
Precision : 16-bit
Duration : 00:04:06.72 = 10880220 samples = 18503.8 CDDA sectors
File Size : 9.93M
Bit Rate : 322k
Sample Encoding: MPEG audio (layer I, II or III)
Comments :
Title=Artifacts
Artist=Aeon Of Disease
Album=Edge Of Purgatory (EP)
Tracknumber=2
Year=2019
Genre=Death Metal



Register


Go to the top of the page
  Insert nick Quick quote
+Quote Post
 
Start new topic
Replies (1 - 1)
post Nov 9 2019, 19:19:50
Post #2

Crush The Enemies
**************
Group: Металариец
Posts: 4,254
Releases: 0
From: Moscow
On Forums: 10 years 2 months
Thanks: 2477 time(s)
Russian Federation



Внушительный гроул с хрипотцой придаёт релизу истинно ДЭТОВОЕ звучание - вернулись к саунду демки 2016 года,уйдя от мутного 2017 альбома,где неожиданно растеряли всю свою былую мощь.

P.S Отличное ТЕВТОНСКОЕ рубилово!!! (IMG:style_emoticons/default/dwarf-1.gif) (IMG:style_emoticons/default/dwarf-1.gif) (IMG:style_emoticons/default/dwarf-1.gif)


Thanks:
Go to the top of the page
  Insert nick Quick quote
+Quote Post

Reply to this topicStart new topic
1 User(s) are reading this topic (1 Guests and 0 Anonymous Users)
0 Members:

 



- Lo-Fi Version Support form
Copyrights and abuse reports form
Time is now: 18th November 2019 - 09:12:04