Welcome Guest ( Log In | Register )

> Releases Upload / Добавление релизов

Добавить релиз тут / Click here to add release
Рекомендованные обменники / Recommended file shares

 
Reply to this topicStart new topic
> Mammoth Mammoth - Kreuzung (2019), Stoner Rock/Metal (D5)
post Nov 8 2019, 16:14:04
Post #1

Каждое ваше "Спасибо" помогает мне понять, что я делаю новости не напрасно.
**************
Group: Металариец
Posts: 2,047
Releases: 1798
From: Одесса
On Forums: 11 years 5 months
Thanks: 15610 time(s)
Ukraine


(IMG:http://metalarea.org/images/audiocovers/2019_Nov/acov_tid330048_thumb.jpg)

*Artist: Mammoth Mammoth
*Album: Kreuzung
*Year: 2019
*Genre: Stoner Rock/Metal
*Country: Australia (IMG:http://metalarea.org/forum/style_images/flags/Australia.png)
*Format: mp3@CBR320kbps
*Size: 98MB

Tracklist:
1.I’m Ready 03:06
2.Wanted Man 03:35
3.Motherf@cker 02:48
4.Screamin’ 02:58
5.Kreuzung 03:55
6.Tear It Down 04:05
7.Tonight 02:40
8.Mad World 03:40
9.Let Go 04:44
10.Lead Boots 03:38
11.God’s Gonna Hate Me 05:14
******************************
Total playing time: 40:23



Extended info
Line - up:

Frank "Bones" Trobbiani - Drums
Mikey Tucker - Vocals
Kris Sinister - Bass
Marco Gennaro - Guitars

(IMG:https://www.metal-archives.com/images/3/5/4/0/3540275735_photo.jpg?5138)


Technical info
(IMG:http://metalarea.org/images/spectrogram/2019_Nov/4270a9d5f840c73fc6e867935fb95bf2.png)
Input File: 08 - Mad World.mp3
Channels : 2
Sample Rate : 44100
Precision : 16-bit
Duration : 00:03:41.06 = 9748878 samples = 16579.7 CDDA sectors
File Size : 8.91M
Bit Rate : 323k
Sample Encoding: MPEG audio (layer I, II or III)
Comments :
Title=Mad World
Artist=Mammoth Mammoth
Album=Kreuzung
Tracknumber=08
Year=2019
Genre=Stoner Rock/Metal



Register


Go to the top of the page
  Insert nick Quick quote
+Quote Post

Reply to this topicStart new topic
1 User(s) are reading this topic (1 Guests and 0 Anonymous Users)
0 Members:

 



- Lo-Fi Version Support form
Copyrights and abuse reports form
Time is now: 18th November 2019 - 09:12:26