Welcome Guest ( Log In | Register )

 
Reply to this topicStart new topic
> Bregma - Miedo De Ser (2005), Heavy Metal
post Nov 8 2019, 16:24:47
Post #1

Serial Uploader
Group Icon
Group: V.I.P
Posts: 36,461
Releases: 34651
From: Lithuania
On Forums: 11 years 5 months
Thanks: 404791 time(s)
Lithuania


(IMG:https://metalarea.org/images/audiocovers/2019_Nov/acov_tid330050_thumb.jpg)

*Artist: Bregma
*Album: Miedo De Ser
*Year: 2005
*Genre: Heavy Metal
*Country: Mexico (IMG:https://metalarea.org/forum/style_images/flags/Mexico.png)
*Format: mp3@CBR320kbps
*Size: 107MB

Tracklist:
01. Justificado 04:04
02. El presente espera 04:27
03. ¿Que vas a hacer? 03:23
04. Instinto-razón 02:54
05. La caída del imperio 04:16
06. Miedo de ser 04:50
07. Confusión (24º a babor) 04:34
08. No me sueltes 04:20
09. Senderos 03:40
10. Chilinha 02:04
11. Thanatos 04:48
12. Por una vez 03:48
******************************
Total playing time: 47:08

Technical info
(IMG:https://metalarea.org/images/spectrogram/2019_Nov/49e9cdef701fa8b19847dc0fbd249d45.png)
Input File: 02. El Presente Espera.mp3
Channels : 2
Sample Rate : 44100
Precision : 16-bit
Duration : 00:04:27.04 = 11776508 samples = 20028.1 CDDA sectors
File Size : 10.7M
Bit Rate : 320k
Sample Encoding: MPEG audio (layer I, II or III)
Comments :
Title=El Presente Espera
Artist=Bregma
Album=Miedo De Ser
Tracknumber=2
Year=2005



Register


Go to the top of the page
  Insert nick Quick quote
+Quote Post

Reply to this topicStart new topic
1 User(s) are reading this topic (1 Guests and 0 Anonymous Users)
0 Members:

 



- Lo-Fi Version Support form
Copyrights and abuse reports form
Time is now: 18th November 2019 - 05:45:26