Welcome Guest ( Log In | Register )

> Releases Upload / Добавление релизов

Добавить релиз тут / Click here to add release
Рекомендованные обменники / Recommended file shares

 
Reply to this topicStart new topic
> Pist - Hailz (2019), Stoner Metal
post Nov 8 2019, 16:35:16
Post #1

Каждое ваше "Спасибо" помогает мне понять, что я делаю новости не напрасно.
**************
Group: Металариец
Posts: 2,047
Releases: 1798
From: Одесса
On Forums: 11 years 5 months
Thanks: 15610 time(s)
Ukraine


(IMG:http://metalarea.org/images/audiocovers/2019_Nov/acov_tid330051_thumb.jpg)

*Artist: Pist
*Album: Hailz
*Year: 2019
*Genre: Stoner Metal
*Country: United Kingdom (IMG:http://metalarea.org/forum/style_images/flags/United%20Kingdom.png)
*Format: mp3@CBR320kbps
*Size: 82MB

Tracklist:
1.Ex-Nihilo
2.Wreck
3.Mind Rotter
4.Fools Gave Chase
5.If I Was You...
6.Strangle the Sun (feat. Elephant Tree)
7.Skin Your God
******************************
Total playing time: 36:45



Extended info
Line - up:
Mike Collins - Bass, Vocals (backing) (Wort, ex-Poison Dwarf, ex-Nomad (live), ex-Slain)
Andy Hunt - Drums (Molly Bloom, Stupid Cosmonaut (live))
John Nicholson - Guitars (Redeye Revival, ex-Blind Haze, ex-Foetal Juice (live), ex-Jacknife Holiday)
Dave Rowlands - Vocals (ex-Jacknife Holiday, ex-Hunting With Chainsaws, ex-Slain, ex-Wheels of Confusion)

Guest/Session:
Jack Townley - Vocals (backing) on "Strangle the Sun" (Elephant Tree)
Peter Holland - Vocals (backing) on "Strangle the Sun" (Elephant Tree, Trippy Wicked & the Cosmic Children of the Knight, ex-Stubb, ex-Swampgirl)

(IMG:https://www.metal-archives.com/images/3/5/4/0/3540376073_photo.jpg?1302)


Technical info
(IMG:http://metalarea.org/images/spectrogram/2019_Nov/db5a20bf7c8b89958a3f7ebb5b9bb06c.png)
Input File: 01. Ex-Nihilo.mp3
Channels : 2
Sample Rate : 44100
Precision : 16-bit
Duration : 00:05:02.91 = 13358287 samples = 22718.2 CDDA sectors
File Size : 12.2M
Bit Rate : 322k
Sample Encoding: MPEG audio (layer I, II or III)
Comments :
Title=Ex-Nihilo
Artist=Pist
Album=Hailz
Tracknumber=1
Year=2019
Genre=Stoner Metal



Register


Go to the top of the page
  Insert nick Quick quote
+Quote Post

Reply to this topicStart new topic
1 User(s) are reading this topic (1 Guests and 0 Anonymous Users)
0 Members:

 



- Lo-Fi Version Support form
Copyrights and abuse reports form
Time is now: 18th November 2019 - 09:55:32