Welcome Guest ( Log In | Register )

> И неформату есть предел.

Рэп/хип-хоп/шансон/поп удаляются. Для них есть свои порталы.

> Dawn Of Ashes - Origin Of The Ashes - The Dark-Electro Years [compilation] (2019), Industrial/Ebm/Melodic Black Metal (D9)
post Nov 8 2019, 16:50:57
Post #1

Каждое ваше "Спасибо" помогает мне понять, что я делаю новости не напрасно.
**************
Group: Металариец
Posts: 2,047
Releases: 1798
From: Одесса
On Forums: 11 years 5 months
Thanks: 15614 time(s)
Ukraine


(IMG:http://metalarea.org/images/audiocovers/2019_Nov/acov_tid330052_thumb.jpg)

*Artist: Dawn Of Ashes
*Album: Origin Of The Ashes - The Dark-Electro Years [compilation]
*Year: 2019
*Genre: Industrial/Ebm/Melodic Black Metal
*Country: United States (IMG:http://metalarea.org/forum/style_images/flags/United%20States.png)
*Format: mp3@CBR320kbps
*Size: 288MB

Tracklist:
1.Abyss
2.In the Acts of Violence
3.Flatline
4.Diagnosis
5.Nightmare
6.Dark Reality
7.Killer Instinct
8.Nail Driven
9.Disgraceful Treason
10.Maximum Damnation
11.Unborn Virus (B-Side)
12.Sadomasochist (B-Side)
13.Taste of Pain (B-Side)
14.A Blade in the Dark
15.Torture Device
16.Portrait of Homicide
17.Inhuman Salvation
18.Psycho Therapy
19.Still Born Defect
20.The Crypt Injection
21.Slasher
22.Where Angels Die
23.Blood Shattered Cross
24.Vengeance (When There Is Nobody to Trust)
25.The Suffering (B-Side)
26.The Gates (B-Side)
27.Cold Hate (B-Side)
******************************
Total playing time: 2:11:38



Extended info
Line - up:

Kristof Bathory - Vocals, Keyboards (Bornless Fire, ex-Urilia)
Bahemoth - Keyboards (ex-Urilia)
Angel Dies - Bass (ex-As Summer Dies, ex-Urilia)
Krz Souls - Electronic drums (Carved Souls)
Ferny Blasphemous - Guitars

(IMG:https://www.metal-archives.com/images/3/5/4/0/3540306799_photo.jpg?0248)


Technical info
(IMG:http://metalarea.org/images/spectrogram/2019_Nov/21cab6ed7e588d12be4abd9d795a174b.png)
Input File: 08 - Naildriven.mp3
Channels : 2
Sample Rate : 44100
Precision : 16-bit
Duration : 00:04:53.09 = 12925137 samples = 21981.5 CDDA sectors
File Size : 11.7M
Bit Rate : 320k
Sample Encoding: MPEG audio (layer I, II or III)
Comments :
Title=Naildriven
Artist=Dawn of Ashes
Album=Origin of the Ashes - The Dark-Electro Years (Compilation)
Tracknumber=8
Year=2019
Genre=Industrial / EBM / Melodic Black Metal



Register


Go to the top of the page
  Insert nick Quick quote
+Quote Post
 
Start new topic
Replies (1 - 1)
post Nov 10 2019, 13:54:49
Post #2

my church is black
********
Group: Металариец
Posts: 855
Releases: 1
On Forums: 2 years 5 months
Thanks: 491 time(s)
Cape Verde


тупо переиздание чтоль?
Go to the top of the page
  Insert nick Quick quote
+Quote Post

Reply to this topicStart new topic
1 User(s) are reading this topic (1 Guests and 0 Anonymous Users)
0 Members:

 



- Lo-Fi Version Support form
Copyrights and abuse reports form
Time is now: 18th November 2019 - 14:15:25