Welcome Guest ( Log In | Register )

> Cryptic Rising - Necrotic Sacrament (2019), Post-Black Metal
post Nov 8 2019, 17:41:27
Post #1

Правь статус, ####!111
**************
Group: Металариец
Posts: 2,802
Releases: 2506
From: Одесса
On Forums: 11 years 11 months
Thanks: 23849 time(s)
Ukraine


(IMG:http://metalarea.org/images/audiocovers/2019_Nov/acov_tid330055_thumb.jpg)

*Artist: Cryptic Rising
*Album: Necrotic Sacrament
*Year: 2019
*Genre: Post-Black Metal
*Country: United States (IMG:http://metalarea.org/forum/style_images/flags/United%20States.png)
*Format: mp3@CBR320kbps
*Size: 56MB

Tracklist:
1.All Ends Meet 01:15
2.A Meager Eulogy 03:28
3.For All to Bear 03:10
4.Plexal Escalation 04:29
5.Verbal Footprint 01:55
6.Tangible Projection 05:50
7.Necrotic Sacrament 03:01
8.Coffin 00:49
******************************
Total playing time: 23:57



Extended info
Line - up:

Matthew Plunkett - Vocals, Noise (Abated Mass of Flesh, ex-Willow Mount, NGC 4414, Parallax Withering, Weathertalk, ex-Cadaverous Contingency, ex-Numbered with the Transgressors, ex-Apocalypse of the Risen, ex-Dysfunctional Rotout)
Zack Plunkett - Guitars, Drum programming (Abated Mass of Flesh, Cadaverous Contingency, Flayed Alive, Numbered with the Transgressors, Propitious Vegetation, ex-Widow and the Son, ex-Christageddon, ex-Double-Barrel Vasectomy, ex-Willow Mount, ex-Dysfunctional Rotout, ex-Parallax Withering)


Technical info
(IMG:http://metalarea.org/images/spectrogram/2019_Nov/72fb04ce3174f7939684404c12f9415e.png)
Input File: 08. Coffin.mp3
Channels : 2
Sample Rate : 44100
Precision : 16-bit
Duration : 00:00:49.98 = 2204030 samples = 3748.35 CDDA sectors
File Size : 2.00M
Bit Rate : 321k
Sample Encoding: MPEG audio (layer I, II or III)
Comments :
Title=Coffin
Artist=Cryptic Rising
Album=Necrotic Sacrament
Tracknumber=8
Year=2019
Genre=Post-Black Metal, Noise



Register


Go to the top of the page
  Insert nick Quick quote
+Quote Post
 
Start new topic
Replies (1 - 4)
post Nov 24 2019, 12:55:32
Post #2

**************
Group: Металариец
Posts: 2,330
Releases: 14
From: Казань
On Forums: 10 years 8 months
Thanks: 3204 time(s)
Russian Federation


Оxуительный микс из одлсульного плотного экзистенциального массива брутальности, атмосферы тления и пограничных метафор мистификации и шизофрении


Thanks:
(1) Chasm,
Go to the top of the page
  Insert nick Quick quote
+Quote Post
post Dec 16 2019, 19:00:08
Post #3

antithesis
**************
Group: Металариец
Posts: 3,051
Releases: 33
From: VRN
On Forums: 10 years 1 week
Thanks: 1895 time(s)
Russian Federation


mirror, pls
Go to the top of the page
  Insert nick Quick quote
+Quote Post
post Jan 4 2020, 02:40:23
Post #4

Group: Подсевший
Posts: 20
Releases: 0
On Forums: 2 years 6 months
Thanks: 1 time(s)
Ukraine


Ссылки сдохли.
Go to the top of the page
  Insert nick Quick quote
+Quote Post
post Jan 4 2020, 05:48:12
Post #5
BAN
Banned till
Jun 1 2020, 09:51:43



post mierda
Go to the top of the page
  Insert nick Quick quote
+Quote Post

Reply to this topicStart new topic
1 User(s) are reading this topic (1 Guests and 0 Anonymous Users)
0 Members:

 



- Lo-Fi Version Support form
Copyrights and abuse reports form
Time is now: 1st June 2020 - 10:00:29