Welcome Guest ( Log In | Register )

> Releases Upload / Добавление релизов

Добавить релиз тут / Click here to add release
Рекомендованные обменники / Recommended file shares

 
Reply to this topicStart new topic
> Cryptic Rising - Necrotic Sacrament (2019), Post-Black Metal
post Nov 8 2019, 17:41:27
Post #1

Каждое ваше "Спасибо" помогает мне понять, что я делаю новости не напрасно.
**************
Group: Металариец
Posts: 2,035
Releases: 1782
From: Одесса
On Forums: 11 years 5 months
Thanks: 15523 time(s)
Ukraine


(IMG:http://metalarea.org/images/audiocovers/2019_Nov/acov_tid330055_thumb.jpg)

*Artist: Cryptic Rising
*Album: Necrotic Sacrament
*Year: 2019
*Genre: Post-Black Metal
*Country: United States (IMG:http://metalarea.org/forum/style_images/flags/United%20States.png)
*Format: mp3@CBR320kbps
*Size: 56MB

Tracklist:
1.All Ends Meet 01:15
2.A Meager Eulogy 03:28
3.For All to Bear 03:10
4.Plexal Escalation 04:29
5.Verbal Footprint 01:55
6.Tangible Projection 05:50
7.Necrotic Sacrament 03:01
8.Coffin 00:49
******************************
Total playing time: 23:57



Extended info
Line - up:

Matthew Plunkett - Vocals, Noise (Abated Mass of Flesh, ex-Willow Mount, NGC 4414, Parallax Withering, Weathertalk, ex-Cadaverous Contingency, ex-Numbered with the Transgressors, ex-Apocalypse of the Risen, ex-Dysfunctional Rotout)
Zack Plunkett - Guitars, Drum programming (Abated Mass of Flesh, Cadaverous Contingency, Flayed Alive, Numbered with the Transgressors, Propitious Vegetation, ex-Widow and the Son, ex-Christageddon, ex-Double-Barrel Vasectomy, ex-Willow Mount, ex-Dysfunctional Rotout, ex-Parallax Withering)


Technical info
(IMG:http://metalarea.org/images/spectrogram/2019_Nov/72fb04ce3174f7939684404c12f9415e.png)
Input File: 08. Coffin.mp3
Channels : 2
Sample Rate : 44100
Precision : 16-bit
Duration : 00:00:49.98 = 2204030 samples = 3748.35 CDDA sectors
File Size : 2.00M
Bit Rate : 321k
Sample Encoding: MPEG audio (layer I, II or III)
Comments :
Title=Coffin
Artist=Cryptic Rising
Album=Necrotic Sacrament
Tracknumber=8
Year=2019
Genre=Post-Black Metal, Noise



Register


Go to the top of the page
  Insert nick Quick quote
+Quote Post

Reply to this topicStart new topic
2 User(s) are reading this topic (2 Guests and 0 Anonymous Users)
0 Members:

 



- Lo-Fi Version Support form
Copyrights and abuse reports form
Time is now: 13th November 2019 - 20:19:52