Welcome Guest ( Log In | Register )

> Infection Code - In.R.I (2019), Industrial/Thrash Metal
post Nov 8 2019, 19:04:40
Post #1

Правь статус, ####!111
**************
Group: Металариец
Posts: 2,802
Releases: 2506
From: Одесса
On Forums: 11 years 11 months
Thanks: 23849 time(s)
Ukraine


(IMG:http://metalarea.org/images/audiocovers/2019_Nov/acov_tid330061_thumb.jpg)

*Artist: Infection Code
*Album: In.R.I
*Year: 2019
*Genre: Industrial/Thrash Metal
*Country: Italy (IMG:http://metalarea.org/forum/style_images/flags/Italy.png)
*Format: mp3@CBR320kbps
*Size: 117MB

Tracklist:
1.Slowly We Suffer
2.Unholy Demo(n)cracy
3.Where the Breath Ends
4.The Cage
5.Alteration
6.New Rotten Flesh
7.Dead Proposal
8.8Hz
******************************
Total playing time: 53:32

(IMG:http://metalarea.org/images/youtube.png)
(IMG:http://metalarea.org/images/youtube.png)
(IMG:http://metalarea.org/images/youtube.png)

Extended info
Line - up:

Davide - Bass
Riky Porzio - Drums (Iron Jaws, ex-Jason Goes to Hell)
Gabriele Oltracqua - Vocals (ex-Quietflower)
Massimiliano Barbero - Guitars

(IMG:https://www.metal-archives.com/images/4/9/0/9/4909_photo.jpg?3605)


Technical info
(IMG:http://metalarea.org/images/spectrogram/2019_Nov/55c457f1474bd74fa2f96bb590f53520.png)
Input File: 08-infection_code-8hz-22958544.mp3
Channels : 2
Sample Rate : 44100
Precision : 16-bit
Duration : 00:07:05.54 = 18766094 samples = 31915.1 CDDA sectors
File Size : 17.0M
Bit Rate : 320k
Sample Encoding: MPEG audio (layer I, II or III)
Comments :
Title=8HZ
Artist=Infection Code
Album=In.R.I
Tracknumber=8
Year=2019
Genre=Industrial/Thrash Metal



Register


Go to the top of the page
  Insert nick Quick quote
+Quote Post
 
Start new topic
Replies (1 - 1)
post Nov 9 2019, 20:25:50
Post #2

MDM-Thrash Metal
**************
Group: Металариец
Posts: 9,522
Releases: 861
From: Одесса
On Forums: 12 years 9 months
Thanks: 22634 time(s)
Ukraine


Go to the top of the page
  Insert nick Quick quote
+Quote Post

Reply to this topicStart new topic
1 User(s) are reading this topic (1 Guests and 0 Anonymous Users)
0 Members:

 



- Lo-Fi Version Support form
Copyrights and abuse reports form
Time is now: 1st June 2020 - 09:55:38