Welcome Guest ( Log In | Register )

> Releases Upload / Добавление релизов

Добавить релиз тут / Click here to add release
Рекомендованные обменники / Recommended file shares

> Temple Nightside - Damnation [demo] (2019), Black/Death Metal
post Nov 8 2019, 19:10:25
Post #1

Правь статус, ####!616
**************
Group: Металариец
Posts: 4,704
Releases: 3283
From: 55°35’N 38°08’E
On Forums: 11 years 4 months
Thanks: 61989 time(s)
Unknown


(IMG:http://metalarea.org/images/audiocovers/2019_Nov/acov_tid330062_thumb.jpg)

*Artist: Temple Nightside
*Album: Damnation [demo]
*Year: 2019
*Genre: Black/Death Metal
*Country: Australia (IMG:http://metalarea.org/forum/style_images/flags/Australia.png)
*Format: mp3@CBR320kbps
*Size: 51MB

Tracklist:
1.Contagion of Heresy 05:35
2.Morose Triumphalis 05:40
3.Labyrinthian Gallows 01:16
4.The Carrion Veil 05:20
5.In Absentia 04:31
******************************
Total playing time: 22:22



Technical info
(IMG:http://metalarea.org/images/spectrogram/2019_Nov/30bda62f19a13f934e6f2ed273122302.png)
Input File: 01 Contagion of Heresy.mp3
Channels : 2
Sample Rate : 44100
Precision : 16-bit
Duration : 00:05:35.49 = 14794933 samples = 25161.5 CDDA sectors
File Size : 13.6M
Bit Rate : 324k
Sample Encoding: MPEG audio (layer I, II or III)
Comments :
Title=Contagion Of Heresy
Artist=Temple Nightside
Album=Damnation
Tracknumber=1
Year=2019
Genre=Black/Death Metal



Register


Go to the top of the page
  Insert nick Quick quote
+Quote Post
 
Start new topic
Replies (1 - 1)
post Nov 9 2019, 19:07:09
Post #2

Мегаманьяк
***********
Group: Металариец
Posts: 1,545
Releases: 24
From: Spain
On Forums: 12 years 2 months
Thanks: 1223 time(s)
Spain


Register


Thanks:
(1) Occultas,
Go to the top of the page
  Insert nick Quick quote
+Quote Post

Reply to this topicStart new topic
2 User(s) are reading this topic (2 Guests and 0 Anonymous Users)
0 Members:

 



- Lo-Fi Version Support form
Copyrights and abuse reports form
Time is now: 13th November 2019 - 21:21:14