Welcome Guest ( Log In | Register )

> Releases Upload / Добавление релизов

Добавить релиз тут / Click here to add release
Рекомендованные обменники / Recommended file shares

> Nmlss_Vgr - Message [demo] (2019), Atmospheric/Ambient Black Metal
post Nov 8 2019, 19:42:08
Post #1

Group: Дух
Posts: 17
Releases: 11
On Forums: 6 days 8 hours
Thanks: 131 time(s)
Unknown


(IMG:http://metalarea.org/images/audiocovers/2019_Nov/acov_tid330063_thumb.jpg)

*Artist: Nmlss_Vgr
*Album: Message [demo]
*Year: 2019
*Genre: Atmospheric/Ambient Black Metal
*Country: Germany (IMG:http://metalarea.org/forum/style_images/flags/Germany.png)
*Format: mp3@CBR320kbps
*Size: 62MB

Tracklist:
01. Message 05:26
02. Expedition 05:47
03. Planet Earth. Home. 06:30
04. Sex Orgy In The Middle Of The Void 03:17
05. Last Light Of Dying Star 05:59
******************************
Total playing time: 26:59



Extended info
Space black metal from North Rhine-Westphalia, Germany; formed by NONAME_1.


Technical info
(IMG:http://metalarea.org/images/spectrogram/2019_Nov/53419c975b02393a727451c550e9e094.png)
Input File: 04. Sex Orgy in the Middle of the Void.mp3
Channels : 2
Sample Rate : 44100
Precision : 16-bit
Duration : 00:03:17.68 = 8717776 samples = 14826.1 CDDA sectors
File Size : 8.10M
Bit Rate : 328k
Sample Encoding: MPEG audio (layer I, II or III)
Comments :
Title=Sex Orgy in the Middle of the Void
Artist=NMLSS_VGR
Album=MESSAGE
Tracknumber=04
Year=2019



Register


Go to the top of the page
  Insert nick Quick quote
+Quote Post
 
Start new topic
Replies (1 - 1)
post Nov 9 2019, 21:40:10
Post #2

my church is black
********
Group: Металариец
Posts: 851
Releases: 1
On Forums: 2 years 5 months
Thanks: 490 time(s)
Cape Verde


Золотую пластинку Вояджера зачем-то перекрасили).
Go to the top of the page
  Insert nick Quick quote
+Quote Post

Reply to this topicStart new topic
2 User(s) are reading this topic (2 Guests and 0 Anonymous Users)
0 Members:

 



- Lo-Fi Version Support form
Copyrights and abuse reports form
Time is now: 13th November 2019 - 20:26:20