Welcome Guest ( Log In | Register )

> Releases Upload / Добавление релизов

Добавить релиз тут / Click here to add release
Рекомендованные обменники / Recommended file shares

> Thanatonaut - Mankind Will Never Leave The Solar System [single] (2019), Atmospheric/Ambient Black Metal
post Nov 8 2019, 20:19:10
Post #1

Group: Дух
Posts: 19
Releases: 15
On Forums: 1 week 5 days
Thanks: 187 time(s)
Unknown


(IMG:http://metalarea.org/images/audiocovers/2019_Nov/acov_tid330068_thumb.jpg)

*Artist: Thanatonaut
*Album: Mankind Will Never Leave The Solar System [single]
*Year: 2019
*Genre: Atmospheric/Ambient Black Metal
*Country: Poland (IMG:http://metalarea.org/forum/style_images/flags/Poland.png)
*Format: mp3@CBR320kbps
*Size: 17MB

Tracklist:
01. Mankind Will Never Leave the Solar System 07:37
******************************
Total playing time: 7:37



Extended info
One-man space black metal from Warsaw, Poland. Formed by Eija Risen (Eintritt, Vrearm Etréeb, Lucifer Effect and more).

Manifesto: "...This vision is a warning for future generations of human beings. If we do not manage to travel faster than the speed of light and solve other problems, like the effects of radiation or zero gravity on human bodies, the possibility of interstellar space colonization and the survival of our kind is very improbable." (View the full text on .)


Technical info
(IMG:http://metalarea.org/images/spectrogram/2019_Nov/b9f207ff1213c9a2663473e64d11762b.png)
Input File: 01. Mankind Will Never Leave the Solar System.mp3
Channels : 2
Sample Rate : 44100
Precision : 16-bit
Duration : 00:07:37.59 = 20179675 samples = 34319.2 CDDA sectors
File Size : 18.4M
Bit Rate : 321k
Sample Encoding: MPEG audio (layer I, II or III)
Comments :
Title=Mankind Will Never Leave the Solar System
Artist=Thanatonaut
Album=Mankind Will Never Leave the Solar System
Tracknumber=01
Year=2019



Register


Go to the top of the page
  Insert nick Quick quote
+Quote Post
 
Start new topic
Replies (1 - 3)
post Nov 11 2019, 21:20:08
Post #2

Ёлд ХеллоВяйне
Group Icon
Group: V.I.P
Posts: 28,334
Releases: 132
From: Питер
On Forums: 13 years 3 weeks
Thanks: 16106 time(s)
Russian Federation


QUOTE(sundowning @ 8th November 2019 - 22:19:10) *
Mankind Will Never Leave the Solar System


А вот щас обидно было.
Go to the top of the page
  Insert nick Quick quote
+Quote Post
post Nov 11 2019, 21:22:32
Post #3

Тысячекратное уничтожение
**************
Group: Металариец
Posts: 3,233
Releases: 161
On Forums: 9 years 3 months
Thanks: 4575 time(s)
Unknown


ЦИТАТА(Old Vyaine @ Nov 11 2019, 23:20:08) *
А вот щас обидно было.

Причём, аппараты, созданные людьми, уже давно её успешно покинули. Просто, нет сейчас такой цели, чтоб кровь из носу. Прижмёт - осуществимо. Вот, есть ли смысл - другой вопрос.
Go to the top of the page
  Insert nick Quick quote
+Quote Post
post Nov 11 2019, 21:25:08
Post #4

Ёлд ХеллоВяйне
Group Icon
Group: V.I.P
Posts: 28,334
Releases: 132
From: Питер
On Forums: 13 years 3 weeks
Thanks: 16106 time(s)
Russian Federation


QUOTE(Фо @ 11th November 2019 - 23:22:32) *
Прижмёт - осуществимо. Вот, есть ли смысл - другой вопрос.


Ну, рано или поздно нужда заставит. Изменение состояния Солнца, например. Другое дело, будет ли к тому времени кому систему покидать.
Go to the top of the page
  Insert nick Quick quote
+Quote Post

Reply to this topicStart new topic
2 User(s) are reading this topic (2 Guests and 0 Anonymous Users)
0 Members:

 



- Lo-Fi Version Support form
Copyrights and abuse reports form
Time is now: 20th November 2019 - 11:17:56