Welcome Guest ( Log In | Register )

> Releases Upload / Добавление релизов

Добавить релиз тут / Click here to add release
Рекомендованные обменники / Recommended file shares

> From Man To Dust - Repossession (2019), Deathcore/Metalcore
post Nov 8 2019, 20:22:14
Post #1

Каждое ваше "Спасибо" помогает мне понять, что я делаю новости не напрасно.
**************
Group: Металариец
Posts: 2,035
Releases: 1782
From: Одесса
On Forums: 11 years 5 months
Thanks: 15523 time(s)
Ukraine


(IMG:http://metalarea.org/images/audiocovers/2019_Nov/acov_tid330069_thumb.jpg)

*Artist: From Man To Dust
*Album: Repossession
*Year: 2019
*Genre: Deathcore/Metalcore
*Country: France (IMG:http://metalarea.org/forum/style_images/flags/France.png)
*Format: mp3@CBR320kbps
*Size: 103MB

Tracklist:
1.How Can They Be So Blind 2.0
2.Olympus
3.Karma
4.The Hidden Part of Me
5.Tape of Shame
6.Suicide Mission
7.From Man to Dust
8.No Words Needed
9.In a Blink of an Eye
10.This Is the End
******************************
Total playing time: 42:45



Extended info
Line - up:

Jean-Paul Sellier - Drums (Karas)
Aurélien Derny - Guitars
Alan Guichard - Guitars, Vocals
Giu - Bass (Craving)


Technical info
(IMG:http://metalarea.org/images/spectrogram/2019_Nov/46d7e1f39161f6da4fc987c46ec6ec53.png)
Input File: 08 Now Words Needed.mp3
Channels : 2
Sample Rate : 44100
Precision : 16-bit
Duration : 00:04:13.80 = 11192404 samples = 19034.7 CDDA sectors
File Size : 10.2M
Bit Rate : 320k
Sample Encoding: MPEG audio (layer I, II or III)
Comments :
Title=Now Words Needed
Artist=From Man To Dust
Album=Repossession
Tracknumber=8
Year=2019
Genre=Death/Thrash Metal



Register


Go to the top of the page
  Insert nick Quick quote
+Quote Post
 
Start new topic
Replies (1 - 2)
post Nov 9 2019, 06:27:17
Post #2

Group: Подсевший
Posts: 21
Releases: 0
On Forums: 11 years 5 months
Thanks: 7 time(s)
Russian Federation


ЦИТАТА(Necrokilldozer @ Nov 9 2019, 00:22:14) *
*Genre: Death/Thrash Metal

Core-во голимое, трэша нет вообсче. (IMG:style_emoticons/default/smile2.gif)


Thanks:
(1) KVRT,
Go to the top of the page
  Insert nick Quick quote
+Quote Post
post Nov 9 2019, 19:37:21
Post #3

i listen to black metal
**************
Group: Металариец
Posts: 2,434
Releases: 129
From: Москва-Лианозово
On Forums: 12 years 10 months
Thanks: 2074 time(s)
Russian Federation


хороший металкор- побеситься дома)))
Go to the top of the page
  Insert nick Quick quote
+Quote Post

Reply to this topicStart new topic
1 User(s) are reading this topic (1 Guests and 0 Anonymous Users)
0 Members:

 



- Lo-Fi Version Support form
Copyrights and abuse reports form
Time is now: 13th November 2019 - 20:19:30