Welcome Guest ( Log In | Register )

> Releases Upload / Добавление релизов

Добавить релиз тут / Click here to add release
Рекомендованные обменники / Recommended file shares

 
Reply to this topicStart new topic
> Von Nacht - Dimensional Discordance [ep] (2018), Black Metal
post Nov 9 2019, 02:33:11
Post #1

Правь статус, ####!616
**************
Group: Металариец
Posts: 4,704
Releases: 3283
From: 55°35’N 38°08’E
On Forums: 11 years 4 months
Thanks: 61989 time(s)
Unknown


(IMG:http://metalarea.org/images/audiocovers/2019_Nov/acov_tid330071_thumb.jpg)

*Artist: Von Nacht
*Album: Dimensional Discordance [ep]
*Year: 2018
*Genre: Black Metal
*Country: United States (IMG:http://metalarea.org/forum/style_images/flags/United%20States.png)
*Format: mp3@CBR320kbps
*Size: 24MB

Tracklist:
1.Rejected By This Realm 04:50
2.Ancient Cavedwelling Entities 03:38
3.Daylight Now Fading 01:13
******************************
Total playing time: 9:41




Technical info
(IMG:http://metalarea.org/images/spectrogram/2019_Nov/9de89091047be925229c8bae6c1a4164.png)
Input File: 01 Rejected By This Realm.mp3
Channels : 2
Sample Rate : 44100
Precision : 16-bit
Duration : 00:04:51.05 = 12835261 samples = 21828.7 CDDA sectors
File Size : 11.9M
Bit Rate : 328k
Sample Encoding: MPEG audio (layer I, II or III)
Comments :
Title=Rejected By This Realm
Artist=Von Nacht
Album=Dimensional Discordance
Tracknumber=1
Year=2018
Genre=Black Metal



Register


Go to the top of the page
  Insert nick Quick quote
+Quote Post

Reply to this topicStart new topic
2 User(s) are reading this topic (2 Guests and 0 Anonymous Users)
0 Members:

 



- Lo-Fi Version Support form
Copyrights and abuse reports form
Time is now: 13th November 2019 - 20:35:01