Welcome Guest ( Log In | Register )

> Releases Upload / Добавление релизов

Добавить релиз тут / Click here to add release
Рекомендованные обменники / Recommended file shares

 
Reply to this topicStart new topic
> Venomwolf - Bring Down The Axe [single] (2019), Black/Speed Metal/Punk
post Nov 9 2019, 02:56:39
Post #1

Правь статус, ####!616
**************
Group: Металариец
Posts: 4,705
Releases: 3282
From: 55°35’N 38°08’E
On Forums: 11 years 4 months
Thanks: 62024 time(s)
Unknown


(IMG:http://metalarea.org/images/audiocovers/2019_Nov/acov_tid330072_thumb.jpg)

*Artist: Venomwolf
*Album: Bring Down The Axe [single]
*Year: 2019
*Genre: Black/Speed Metal/Punk
*Country: United Kingdom (IMG:http://metalarea.org/forum/style_images/flags/United%20Kingdom.png)
*Format: mp3@CBR320kbps
*Size: 24MB

Tracklist:
1.Bring Down the Axe 03:54
2.Buried Alive (Venom cover) 04:38
******************************
Total playing time: 8:32




Technical info
(IMG:http://metalarea.org/images/spectrogram/2019_Nov/ec37a493c6ad14ec6efb2a3896af4a34.png)
Input File: 01 Bring Down the Axe.mp3
Channels : 2
Sample Rate : 44100
Precision : 16-bit
Duration : 00:03:54.47 = 10339907 samples = 17584.9 CDDA sectors
File Size : 9.51M
Bit Rate : 324k
Sample Encoding: MPEG audio (layer I, II or III)
Comments :
Title=Bring Down the Axe
Artist=Venomwolf
Album=Bring Down the Axe
Tracknumber=1
Year=2019
Genre=Metal



Register


Go to the top of the page
  Insert nick Quick quote
+Quote Post

Reply to this topicStart new topic
1 User(s) are reading this topic (1 Guests and 0 Anonymous Users)
0 Members:

 



- Lo-Fi Version Support form
Copyrights and abuse reports form
Time is now: 20th November 2019 - 10:01:56