Welcome Guest ( Log In | Register )

> Releases Upload / Добавление релизов

Добавить релиз тут / Click here to add release
Рекомендованные обменники / Recommended file shares

 
Reply to this topicStart new topic
> Centurion - Rides Again! (1997), Thrash/Heavy Metal (D8)
post Nov 9 2019, 09:42:30
Post #1

Подвал
**************
Group: Металариец
Posts: 13,785
Releases: 7808
From: Far East (Khabarovsk)
On Forums: 10 years 9 months
Thanks: 75993 time(s)
Russian Federation


(IMG:http://metalarea.org/images/audiocovers/2019_Nov/acov_tid330084_thumb.JPG)

*Artist: Centurion
*Album: Rides Again!
*Year: 1997
*Genre: Thrash/Heavy Metal
*Country: United States (IMG:http://metalarea.org/forum/style_images/flags/United%20States.png)
*Format: mp3@CBR320kbps
*Size: 87MB

Tracklist:
1. Legions Of Hate 03:18
2. Prelude To Valhalla 03:32
3. Remembrance 03:53
4. Thor (The Powerhead) (Manowar cover) 04:13
5. Rise Of The Numenor 05:44
6. The Fields Of Athenry 04:01
7. Victory Against Genocide 03:32
8. Onward To Victory (Bound For Glory cover) 02:21
9. Only Our Rivers Run Free 03:22
******************************
Total playing time: 33:56

Extended info
Band from Wisconsin.


Technical info
(IMG:http://metalarea.org/images/spectrogram/2019_Nov/543eeec28ccecabbebc0b0d429f6bbca.png)
Input File: 01-Legions of Hate.mp3
Channels : 2
Sample Rate : 44100
Precision : 16-bit
Duration : 00:03:21.09 = 8868069 samples = 15081.8 CDDA sectors
File Size : 8.13M
Bit Rate : 323k
Sample Encoding: MPEG audio (layer I, II or III)
Comments :
Title=Legions of Hate
Artist=Centurion
Album=Rides Again
Tracknumber=01/09
Year=1997
Genre=Other



Register


Go to the top of the page
  Insert nick Quick quote
+Quote Post

Reply to this topicStart new topic
2 User(s) are reading this topic (2 Guests and 0 Anonymous Users)
0 Members:

 



- Lo-Fi Version Support form
Copyrights and abuse reports form
Time is now: 13th November 2019 - 20:19:46