Welcome Guest ( Log In | Register )

> Releases Upload / Добавление релизов

Добавить релиз тут / Click here to add release
Рекомендованные обменники / Recommended file shares

> Shaped In Dreams - Echoes Of Eldren Deeds (2019), Progressive Melodic Death Metal
post Nov 9 2019, 10:39:34
Post #1

Правь статус, ####!111
**************
Group: Металариец
Posts: 19,546
Releases: 13235
From: Г.Харьков
On Forums: 7 years 6 months
Thanks: 228117 time(s)
Unknown


(IMG:http://metalarea.org/images/audiocovers/2019_Nov/acov_tid330086_thumb.jpg)

*Artist: Shaped In Dreams
*Album: Echoes Of Eldren Deeds
*Year: 2019
*Genre: Progressive Melodic Death Metal
*Country: Germany (IMG:http://metalarea.org/forum/style_images/flags/Germany.png)
*Format: mp3@CBR320kbps
*Size: 108MB

Tracklist:
1. A Vault Roamed by Memory 02:47 instrumental
2. Fire Within 06:08
3. ...and Warmth Remained 05:12 instrumental
4. Mere Illusion 05:24
5. A Giant to Face 06:21
6. Thrilled for the Brawl 06:08
7. At the Caverns of Sleep 04:00 instrumental
8. As Life Awakens 04:28
9. Time Turned into Memory 06:30 instrumental
******************************
Total playing time: 46:58




Extended info
Martin Matiasovic - Rhythm, Lead and Acoustic Guitars, French Horn, Composing, Arranging, Production, Editing, Lyrics
James Dorton - Vocals
Linus Klausenitzer - Bass
Marc Dzierzon - Drums



Technical info
(IMG:http://metalarea.org/images/spectrogram/2019_Nov/50a12bab18fb24da185c333bf9d624ae.png)
Input File: 03 - And Warmth Remained.mp3
Channels : 2
Sample Rate : 44100
Precision : 16-bit
Duration : 00:04:52.80 = 12912304 samples = 21959.7 CDDA sectors
File Size : 11.9M
Bit Rate : 325k
Sample Encoding: MPEG audio (layer I, II or III)
Comments :
Title=And Warmth Remained
Artist=Shaped in Dreams
Album=Echoes of Eldren Deeds
Tracknumber=3
Year=2019



Register


Go to the top of the page
  Insert nick Quick quote
+Quote Post
 
Start new topic
Replies (1 - 5)
post Nov 9 2019, 20:10:02
Post #2

MDM-Thrash Metal
**************
Group: Металариец
Posts: 9,078
Releases: 743
From: Одесса
On Forums: 12 years 3 months
Thanks: 19819 time(s)
Ukraine


Пипец, облога за 5 копеек и содержимое соответствующее.
Какой нахрен мелодез - здесь даже и не пахнет им воооообще!!!
Последние 3 трека - фортепианное извращение.


Thanks:
Go to the top of the page
  Insert nick Quick quote
+Quote Post
post Nov 9 2019, 23:30:17
Post #3

Мегаманьяк
***********
Group: Металариец
Posts: 1,728
Releases: 0
From: Харьков
On Forums: 10 years 1 month
Thanks: 729 time(s)
Ukraine


ЦИТАТА(Andrew @ Nov 9 2019, 21:10:02) *
облога за 5 копеек и содержимое соответствующее

С басистом из Obscura, тем не менее)


Thanks:
Go to the top of the page
  Insert nick Quick quote
+Quote Post
post Nov 10 2019, 20:45:37
Post #4

Шесть Литров
******
Group: Металариец
Posts: 517
Releases: 1
From: Тверская
On Forums: 12 years 6 months
Thanks: 256 time(s)
Russian Federation


ЦИТАТА(Ghostb @ 10th November 2019 - 01:30:17) *
С басистом из Obscura, тем не менее)

Вот только из-за этого даже послушаю !
Go to the top of the page
  Insert nick Quick quote
+Quote Post
post Nov 11 2019, 16:05:36
Post #5

Шесть Литров
******
Group: Металариец
Posts: 517
Releases: 1
From: Тверская
On Forums: 12 years 6 months
Thanks: 256 time(s)
Russian Federation


Годный трэк "Mere Illusion", остальное мимо, гениальный Тесселинг (Obscura, Pestilence ...) не смог спасти этот проект, к сожалению. ИМХО (IMG:style_emoticons/default/21.gif)
Go to the top of the page
  Insert nick Quick quote
+Quote Post
post Nov 11 2019, 22:41:32
Post #6

Мегаманьяк
***********
Group: Металариец
Posts: 1,728
Releases: 0
From: Харьков
On Forums: 10 years 1 month
Thanks: 729 time(s)
Ukraine


ЦИТАТА(realexxx75 @ Nov 11 2019, 17:05:36) *
гениальный Тесселинг (Obscura, Pestilence ...) не смог спасти этот проект

Так здесь же Klausenitzer на басу (IMG:style_emoticons/default/crazy.gif)
Go to the top of the page
  Insert nick Quick quote
+Quote Post

Reply to this topicStart new topic
1 User(s) are reading this topic (1 Guests and 0 Anonymous Users)
0 Members:

 



- Lo-Fi Version Support form
Copyrights and abuse reports form
Time is now: 20th November 2019 - 10:47:24