Welcome Guest ( Log In | Register )

> Releases Upload / Добавление релизов

Добавить релиз тут / Click here to add release
Рекомендованные обменники / Recommended file shares

 
Reply to this topicStart new topic
> Chalice Of Throe - Times Are Coming (2019), Heavy/Progressive/Power Metal
post Nov 9 2019, 10:59:25
Post #1

Правь статус, ####!111
**************
Group: Металариец
Posts: 19,452
Releases: 13151
From: Г.Харьков
On Forums: 7 years 6 months
Thanks: 226888 time(s)
Unknown


(IMG:http://metalarea.org/images/audiocovers/2019_Nov/acov_tid330087_thumb.jpg)

*Artist: Chalice Of Throe
*Album: Times Are Coming
*Year: 2019
*Genre: Heavy/Progressive/Power Metal
*Country: Brazil (IMG:http://metalarea.org/forum/style_images/flags/Brazil.png)
*Format: mp3@CBR320kbps
*Size: 88MB

Tracklist:
1. Ascension
2. Be Afraid
3. End of Times
4. Heart's Black Sea
5. Coming of Eris
6. In Your Eyes
7. Rising Sun
8. Thread of the Fate
******************************
Total playing time: 37:01



Extended info



Technical info
(IMG:http://metalarea.org/images/spectrogram/2019_Nov/9b2f4327011a1b548cd581f08c694683.png)
Input File: 03 - End of Times.mp3
Channels : 2
Sample Rate : 44100
Precision : 16-bit
Duration : 00:05:51.58 = 15504590 samples = 26368.4 CDDA sectors
File Size : 14.3M
Bit Rate : 324k
Sample Encoding: MPEG audio (layer I, II or III)
Comments :
Title=End of Times
Artist=Chalice Of Throe
Album=Times Are Coming
Tracknumber=3
Year=2019
Genre=Heavy Metal
Discnumber=1



Register


Go to the top of the page
  Insert nick Quick quote
+Quote Post

Reply to this topicStart new topic
2 User(s) are reading this topic (2 Guests and 0 Anonymous Users)
0 Members:

 



- Lo-Fi Version Support form
Copyrights and abuse reports form
Time is now: 13th November 2019 - 21:36:35