Welcome Guest ( Log In | Register )

> Releases Upload / Добавление релизов

Добавить релиз тут / Click here to add release
Рекомендованные обменники / Recommended file shares

 
Reply to this topicStart new topic
> Ghusa - 25 Years Of Death Metal [compilation] (2015), Old School Death Metal
post Nov 9 2019, 11:33:51
Post #1

Правь статус, ####!111
**************
Group: Металариец
Posts: 19,546
Releases: 13235
From: Г.Харьков
On Forums: 7 years 6 months
Thanks: 228117 time(s)
Unknown


(IMG:http://metalarea.org/images/audiocovers/2019_Nov/acov_tid330093_thumb.jpg)

*Artist: Ghusa
*Album: 25 Years Of Death Metal [compilation]
*Year: 2015
*Genre: Old School Death Metal
*Country: France (IMG:http://metalarea.org/forum/style_images/flags/France.png)
*Format: mp3@CBR320kbps
*Size: 202MB

Tracklist:
01. Casket Garden (Dismember cover)
02. No God for the Living
03. Blessed Be (Entombed cover)
04. Genocide
05. Soulless (Grave cover)
06. The Nail
07. I'm Not the Only One
08. Letter to My Son'(s)
09. Violation Domain (Benediction cover)
10. Nechama (The Jon's Song)
11. Ponctual Choice
12. The Color
13. The Wind
14. Silence
15. RU486
16. The Warrior
17. Promo Tape 1994
******************************
Total playing time: 1:06:24




Extended info
Pyromancer Drums
See also: Architect of Seth, Mylidian, Voight Kampff, Black Tears, ex-Diktat
L. Chuck D. Vocals, Guitars (1989-present)
See also: ex-Carnal Lust, ex-No Return, ex-Yorblind
Heimdall Bass (2014-present)
See also: DunkelNacht, Harshness
Vincent Bigaillon Guitars (2014-present)
See also: Blood Troopers, ex-W.I.L.D.
Romuald Potel Guitars (rhythm) (2016-present)
See also: Morzienda, Nyarlath
Brendan Duffy Drums (2018-present)
See also: Dödsrit, Morvigor


Technical info
(IMG:http://metalarea.org/images/spectrogram/2019_Nov/17771bdb9d0274e33ffe5bb78e2e0742.png)
Input File: 06. The Nail.mp3
Channels : 2
Sample Rate : 44100
Precision : 16-bit
Duration : 00:05:55.07 = 15658367 samples = 26629.9 CDDA sectors
File Size : 14.7M
Bit Rate : 331k
Sample Encoding: MPEG audio (layer I, II or III)
Comments :
Title=The Nail
Artist=ghUSa
Album=25 Years of Death Metal (320)
Tracknumber=06
Year=2015
Genre=Metal



Register


Go to the top of the page
  Insert nick Quick quote
+Quote Post

Reply to this topicStart new topic
2 User(s) are reading this topic (2 Guests and 0 Anonymous Users)
0 Members:

 



- Lo-Fi Version Support form
Copyrights and abuse reports form
Time is now: 20th November 2019 - 10:51:14