Welcome Guest ( Log In | Register )

> Releases Upload / Добавление релизов

Добавить релиз тут / Click here to add release
Рекомендованные обменники / Recommended file shares

> Dinograve - Into The Black [ep] (2019), Melodic Death/Thrash Metal
post Nov 9 2019, 12:11:19
Post #1

Правь статус, ####!111
**************
Group: Металариец
Posts: 19,452
Releases: 13151
From: Г.Харьков
On Forums: 7 years 6 months
Thanks: 226891 time(s)
Unknown


(IMG:http://metalarea.org/images/audiocovers/2019_Nov/acov_tid330097_thumb.jpg)

*Artist: Dinograve
*Album: Into The Black [ep]
*Year: 2019
*Genre: Melodic Death/Thrash Metal
*Country: United States (IMG:http://metalarea.org/forum/style_images/flags/United%20States.png)
*Format: mp3@CBR320kbps
*Size: 70MB

Tracklist:
1. Violent Determination 06:02
2. Ascent to Naught 07:18
3. Winter 08:52
4. Jupiter 08:04
******************************
Total playing time: 30:16



Extended info
Peter DeMore
Shaun Carmer
Ryan Smith
Alejandro Pelaez



Technical info
(IMG:http://metalarea.org/images/spectrogram/2019_Nov/58c184e2733d22547446290c646bc0b9.png)
Input File: 03 - Winter.mp3
Channels : 2
Sample Rate : 44100
Precision : 16-bit
Duration : 00:08:52.09 = 23465213 samples = 39906.8 CDDA sectors
File Size : 21.4M
Bit Rate : 322k
Sample Encoding: MPEG audio (layer I, II or III)
Comments :
Title=Winter
Artist=Dinograve
Album=Into the Black
Tracknumber=3
Year=2019-11-09
Discnumber=1



Register


Go to the top of the page
  Insert nick Quick quote
+Quote Post
 
Start new topic
Replies (1 - 1)
post Nov 9 2019, 20:15:48
Post #2

MDM-Thrash Metal
**************
Group: Металариец
Posts: 9,052
Releases: 734
From: Одесса
On Forums: 12 years 3 months
Thanks: 19698 time(s)
Ukraine




Thanks:
(1) AHBAnep,
Go to the top of the page
  Insert nick Quick quote
+Quote Post

Reply to this topicStart new topic
2 User(s) are reading this topic (2 Guests and 0 Anonymous Users)
0 Members:

 



- Lo-Fi Version Support form
Copyrights and abuse reports form
Time is now: 13th November 2019 - 21:59:09