Welcome Guest ( Log In | Register )

> Releases Upload / Добавление релизов

Добавить релиз тут / Click here to add release
Рекомендованные обменники / Recommended file shares

 
Reply to this topicStart new topic
> Trial By Fire - Mayhem Uncovered [ep] (2019), Thrash/Heavy Metal
post Nov 9 2019, 13:13:58
Post #1

Правь статус, ####!111
**************
Group: Металариец
Posts: 19,452
Releases: 13151
From: Г.Харьков
On Forums: 7 years 6 months
Thanks: 226876 time(s)
Unknown


(IMG:http://metalarea.org/images/audiocovers/2019_Nov/acov_tid330098_thumb.jpg)

*Artist: Trial By Fire
*Album: Mayhem Uncovered [ep]
*Year: 2019
*Genre: Thrash/Heavy Metal
*Country: Finland (IMG:http://metalarea.org/forum/style_images/flags/Finland.png)
*Format: mp3@CBR320kbps
*Size: 72MB

Tracklist:
1. Departure from Time 03:37 instrumental
2. Afterburn 04:06
3. I Am the One 05:41
4. Lost in Sorrow 06:36
5. Marching On 04:51
6. Critical Urgency 06:38
******************************
Total playing time: 31:29



Extended info
Toivo Hankia Bass
Tino Porkka Drums
Totti Pakkanen Guitars
Tuure Suomalainen Vocals, Guitars



Technical info
(IMG:http://metalarea.org/images/spectrogram/2019_Nov/4b2ac88702211fca917ff497760c00e1.png)
Input File: 03 - I Am the One.mp3
Channels : 2
Sample Rate : 44100
Precision : 16-bit
Duration : 00:05:40.08 = 14997528 samples = 25506 CDDA sectors
File Size : 13.7M
Bit Rate : 322k
Sample Encoding: MPEG audio (layer I, II or III)
Comments :
Title=I Am the One
Artist=Trial By Fire
Album=Mayhem Uncovered
Tracknumber=3
Year=2019-09-01
Genre=Metal
Discnumber=1



Register


Go to the top of the page
  Insert nick Quick quote
+Quote Post

Reply to this topicStart new topic
2 User(s) are reading this topic (2 Guests and 0 Anonymous Users)
0 Members:

 



- Lo-Fi Version Support form
Copyrights and abuse reports form
Time is now: 13th November 2019 - 21:02:04