Welcome Guest ( Log In | Register )

> Releases Upload / Добавление релизов

Добавить релиз тут / Click here to add release
Рекомендованные обменники / Recommended file shares

 
Reply to this topicStart new topic
> Perky Macabre - Auditory Hallucinations [ep] (2019), Grindcore (D110)
post Nov 9 2019, 14:24:15
Post #1

Serial Uploader
Group Icon
Group: V.I.P
Posts: 36,465
Releases: 34653
From: Lithuania
On Forums: 11 years 5 months
Thanks: 404865 time(s)
Lithuania


(IMG:https://metalarea.org/images/audiocovers/2019_Nov/acov_tid330101_thumb.png)

*Artist: Perky Macabre
*Album: Auditory Hallucinations [ep]
*Year: 2019
*Genre: Grindcore
*Country: United States (IMG:https://metalarea.org/forum/style_images/flags/United%20States.png)
*Format: mp3@CBR320kbps
*Size: 4MB

Tracklist:
01. Sticky Altar/Dealing In Dirt/Bruised And Yellow/Bitter Recollections 00:53
******************************
Total playing time: 0:53



Technical info
(IMG:https://metalarea.org/images/spectrogram/2019_Nov/cbe6d82b407a06a1061bc0c9a4e71cd1.png)
Input File: 01. Sticky Altar-Dealing In Dirt-Bruised And Yellow-Bitter Recollections.mp3
Channels : 2
Sample Rate : 44100
Precision : 16-bit
Duration : 00:00:53.21 = 2346737 samples = 3991.05 CDDA sectors
File Size : 2.21M
Bit Rate : 332k
Sample Encoding: MPEG audio (layer I, II or III)
Comments :
Title=Sticky Altar/Dealing In Dirt/Bruised And Yellow/Bitter Recollections
Artist=Perky Macabre
Album=Auditory Hallucinations
Tracknumber=1
Year=2019



Register


Thanks:
Go to the top of the page
  Insert nick Quick quote
+Quote Post

Reply to this topicStart new topic
2 User(s) are reading this topic (2 Guests and 0 Anonymous Users)
0 Members:

 



- Lo-Fi Version Support form
Copyrights and abuse reports form
Time is now: 20th November 2019 - 09:58:13