Welcome Guest ( Log In | Register )

> Releases Upload / Добавление релизов

Добавить релиз тут / Click here to add release
Рекомендованные обменники / Recommended file shares

 
Reply to this topicStart new topic
> Perky Macabre - Ugly Seance [ep] (2019), Grindcore (D110)
post Nov 9 2019, 14:30:37
Post #1

Serial Uploader
Group Icon
Group: V.I.P
Posts: 36,429
Releases: 34613
From: Lithuania
On Forums: 11 years 5 months
Thanks: 404241 time(s)
Lithuania


(IMG:https://metalarea.org/images/audiocovers/2019_Nov/acov_tid330102_thumb.png)

*Artist: Perky Macabre
*Album: Ugly Seance [ep]
*Year: 2019
*Genre: Grindcore
*Country: United States (IMG:https://metalarea.org/forum/style_images/flags/United%20States.png)
*Format: mp3@CBR320kbps
*Size: 8MB

Tracklist:
01. R.I.P. 00:14
02. Arterial Mist 00:16
03. Touch The Dead 00:20
04. Hatchet Blessings 00:14
05. Psychedelic Necromancy 00:14
06. Graveyard Nudist 00:28
07. Ugly Seance 00:27
******************************
Total playing time: 2:13



Technical info
(IMG:https://metalarea.org/images/spectrogram/2019_Nov/dc5ae7af7f039e6c6cd224ce7316aeab.png)
Input File: 02. Arterial Mist.mp3
Channels : 2
Sample Rate : 44100
Precision : 16-bit
Duration : 00:00:16.38 = 722314 samples = 1228.43 CDDA sectors
File Size : 822k
Bit Rate : 402k
Sample Encoding: MPEG audio (layer I, II or III)
Comments :
Title=Arterial Mist
Artist=Perky Macabre
Album=Ugly Seance
Tracknumber=2
Year=2019



Register


Thanks:
(1) Rosen,
Go to the top of the page
  Insert nick Quick quote
+Quote Post

Reply to this topicStart new topic
2 User(s) are reading this topic (2 Guests and 0 Anonymous Users)
0 Members:

 



- Lo-Fi Version Support form
Copyrights and abuse reports form
Time is now: 13th November 2019 - 21:45:43