Welcome Guest ( Log In | Register )

> И неформату есть предел.

Рэп/хип-хоп/шансон/поп удаляются. Для них есть свои порталы.

 
Reply to this topicStart new topic
> Голос Омерики - Спорт (2019), Punk Rock/Ska
post Nov 9 2019, 22:00:58
Post #1

ME[ta]LLOMAN
**************
Group: Металариец
Posts: 4,935
Releases: 3
From: Avdeyevka
On Forums: 13 years 7 months
Thanks: 1886 time(s)
Honduras


(IMG:http://metalarea.org/images/audiocovers/2019_Nov/acov_tid330110_thumb.jpg)

*Artist: Голос Омерики
*Album: Спорт
*Year: 2019
*Genre: Punk Rock/Ska
*Country: Russian Federation (IMG:http://metalarea.org/forum/style_images/flags/Russian%20Federation.png)
*Format: mp3@CBR320kbps
*Size: 109MB

Tracklist:
01 Бибоп и Рокстеди - 4:22
02 Труп невесты - 4:00
03 АНТИЗОЖ - 3:41
04 Весёлая ферма - 3:30
05 Днище - 4:37
06 ОМОН - 3:13
07 Наука - 3:46
08 Ирина - 4:32
09 РЕН ТВ - 4:00
10 Последний герой - 4:03
11 Игра - 3:45
12 Собака-гипнотизёр (bonus) - 2:20
******************************
Total playing time: 45:49

preview 1
preview 2
preview 3

Extended info
Состав Родион Лубенский — вокал, аккордеон, клавиши, слова, музыка
Александр Воробьёв — гитара, банджо, балалайка, бэк-вокал
Сергей Шмельков — бас-гитара, бэк-вокал
Алексей Боев — барабаны
Михаил "Карней" Карнейчик — перкуссия, танцы
Георгий Янковский — скрипка, бэк-вокал

golosomeriki.ru

(IMG:https://upload.wikimedia.org/wikipedia/commons/thumb/1/15/Runet_Prize_2014_010.JPG/1280px-Runet_Prize_2014_010.JPG)



Technical info
(IMG:http://metalarea.org/images/spectrogram/2019_Nov/4a6970f42f922dfd9636296f39a16bb2.png)
Input File: 07. Наука.mp3
Channels : 2
Sample Rate : 44100
Precision : 16-bit
Duration : 00:03:46.39 = 9983799 samples = 16979.2 CDDA sectors
File Size : 9.13M
Bit Rate : 323k
Sample Encoding: MPEG audio (layer I, II or III)
Comments :
Title=Наука
Artist=Голос Омерики
Album=Спорт
Tracknumber=7/12
Year=2019
Genre=121
Discnumber=1/1



Register


Go to the top of the page
  Insert nick Quick quote
+Quote Post

Reply to this topicStart new topic
1 User(s) are reading this topic (1 Guests and 0 Anonymous Users)
0 Members:

 



- Lo-Fi Version Support form
Copyrights and abuse reports form
Time is now: 20th November 2019 - 10:11:42