Welcome Guest ( Log In | Register )

> И неформату есть предел.

Рэп/хип-хоп/шансон/поп удаляются. Для них есть свои порталы.

 
Reply to this topicStart new topic
> Crooked Necks - Faded Fluorescence [ep] (2014), Post-Punk/Blackgaze (D4)
post Nov 9 2019, 23:44:12
Post #1

Group: Дух
Posts: 19
Releases: 15
On Forums: 1 week 5 days
Thanks: 187 time(s)
Unknown


(IMG:http://metalarea.org/images/audiocovers/2019_Nov/acov_tid330111_thumb.jpg)

*Artist: Crooked Necks
*Album: Faded Fluorescence [ep]
*Year: 2014
*Genre: Post-Punk/Blackgaze
*Country: United States (IMG:http://metalarea.org/forum/style_images/flags/United%20States.png)
*Format: mp3@CBR320kbps
*Size: 48MB

Tracklist:
01. Tornado Formations 06:06
02. Shallow Pools and Unused Rooms 03:21
03. From the Roots 03:59
04. Broken into Shapes 02:35
05. And Now I'm Dying 04:51
******************************
Total playing time: 20:52




Extended info
Blackened post-punk. Originally formed as Frail in 2006, changed name to Crooked Necks in 2009.


Technical info
(IMG:http://metalarea.org/images/spectrogram/2019_Nov/e1f596a4e6c71aa636f4242b4cdb720a.png)
Input File: 04. Broken into Shapes.mp3
Channels : 2
Sample Rate : 44100
Precision : 16-bit
Duration : 00:02:35.70 = 6866414 samples = 11677.6 CDDA sectors
File Size : 6.69M
Bit Rate : 344k
Sample Encoding: MPEG audio (layer I, II or III)
Comments :
Title=Broken into Shapes
Artist=Crooked Necks
Album=Faded Fluorescence
Tracknumber=04
Year=2014



Register


Thanks:
(1) Olethros,
Go to the top of the page
  Insert nick Quick quote
+Quote Post

Reply to this topicStart new topic
1 User(s) are reading this topic (1 Guests and 0 Anonymous Users)
0 Members:

 



- Lo-Fi Version Support form
Copyrights and abuse reports form
Time is now: 20th November 2019 - 11:17:49