Welcome Guest ( Log In | Register )

> И неформату есть предел.

Рэп/хип-хоп/шансон/поп удаляются. Для них есть свои порталы.

 
Reply to this topicStart new topic
> Lipitoare - The Coven Of Desecration [demo] (2018), Dark Ambient
post Nov 10 2019, 21:38:48
Post #1

Правь статус, ####!111
**************
Group: Металариец
Posts: 3,995
Releases: 1019
From: Brazil
On Forums: 7 years 9 months
Thanks: 37798 time(s)
Brazil


(IMG:https://metalarea.org/images/audiocovers/2019_Nov/acov_tid330147_thumb.jpg)

*Artist: Lipitoare
*Album: The Coven Of Desecration [demo]
*Year: 2018
*Genre: Dark Ambient
*Country: Unknown (IMG:https://metalarea.org/forum/style_images/flags/Unknown.png)
*Format: mp3@VBR247kbps
*Size: 28MB

Tracklist:
1. Untitled 15:16
******************************
Total playing time: 15:16

Extended info
Perverse Homage


"These spells were conducted under the blood moon of MMXVIII.

This force of destruction was conjured in the name of The Coven of Desecration.

You are not welcome and your kind will be destroyed.

Lipitoare represents the end."

Tape-rip by Zero


Technical info
(IMG:https://metalarea.org/images/spectrogram/2019_Nov/d2780811db1273da5c539ae254934974.png)
Input File: 01 Untitled.mp3
Channels : 2
Sample Rate : 44100
Precision : 16-bit
Duration : 00:15:17.03 = 40440935 samples = 68777.1 CDDA sectors
File Size : 28.5M
Bit Rate : 249k
Sample Encoding: MPEG audio (layer I, II or III)
Comments :
Title=Untitled
Artist=Lipitoare
Album=The Coven Of Desecration
Tracknumber=01/1
Year=2018
Discnumber=1/1



Register


Thanks:
Go to the top of the page
  Insert nick Quick quote
+Quote Post

Reply to this topicStart new topic
1 User(s) are reading this topic (1 Guests and 0 Anonymous Users)
0 Members:

 



- Lo-Fi Version Support form
Copyrights and abuse reports form
Time is now: 20th November 2019 - 10:59:22