Welcome Guest ( Log In | Register )

> И неформату есть предел.

Рэп/хип-хоп/шансон/поп удаляются. Для них есть свои порталы.

 
Reply to this topicStart new topic
> Lipitoare - Lipitoare [ep] (2018), Dark Ambient
post Nov 10 2019, 21:47:45
Post #1

Правь статус, ####!111
**************
Group: Металариец
Posts: 3,991
Releases: 1019
From: Brazil
On Forums: 7 years 9 months
Thanks: 37709 time(s)
Brazil


(IMG:https://metalarea.org/images/audiocovers/2019_Nov/acov_tid330148_thumb.jpg)

*Artist: Lipitoare
*Album: Lipitoare [ep]
*Year: 2018
*Genre: Dark Ambient
*Country: Unknown (IMG:https://metalarea.org/forum/style_images/flags/Unknown.png)
*Format: mp3@VBR247kbps
*Size: 98MB

Tracklist:
1. Untitled 16:29
2. Untitled 11:17
******************************
Total playing time: 27:46

Extended info
Tape released by Perverse Homage
Vinyl by Final Agony Records and Signal Rex

"LIPITOARE is the knife in the throat of every vile subhuman in this pathetic world.

WORSHIP DEATH
AVE SATANAS
COMMIT MURDER"

This file contains both tape and vinyl-rips


Technical info
(IMG:https://metalarea.org/images/spectrogram/2019_Nov/b23bb2ae17a5d1cdd236a1aca84c9ece.png)
Input File: 02 Part II.mp3
Channels : 2
Sample Rate : 44100
Precision : 16-bit
Duration : 00:09:19.02 = 24652782 samples = 41926.5 CDDA sectors
File Size : 17.3M
Bit Rate : 247k
Sample Encoding: MPEG audio (layer I, II or III)
Comments :
Title=Part II
Artist=Lipitoare
Album=Lipitoare
Tracknumber=02/2
Year=2017
Discnumber=1/1



Register


Thanks:
Go to the top of the page
  Insert nick Quick quote
+Quote Post

Reply to this topicStart new topic
1 User(s) are reading this topic (1 Guests and 0 Anonymous Users)
0 Members:

 



- Lo-Fi Version Support form
Copyrights and abuse reports form
Time is now: 18th November 2019 - 04:33:31