Welcome Guest ( Log In | Register )

> И неформату есть предел.

Рэп/хип-хоп/шансон/поп удаляются. Для них есть свои порталы.

 
Reply to this topicStart new topic
> Lipitoare - The Burial Blade [demo] (2018), Dark Ambient
post Nov 10 2019, 22:10:38
Post #1

Правь статус, ####!111
**************
Group: Металариец
Posts: 3,995
Releases: 1019
From: Brazil
On Forums: 7 years 9 months
Thanks: 37798 time(s)
Brazil


(IMG:https://metalarea.org/images/audiocovers/2019_Nov/acov_tid330150_thumb.jpg)

*Artist: Lipitoare
*Album: The Burial Blade [demo]
*Year: 2018
*Genre: Dark Ambient
*Country: Unknown (IMG:https://metalarea.org/forum/style_images/flags/Unknown.png)
*Format: mp3@VBR234kbps
*Size: 71MB

Tracklist:
1. Untitled 24:49
2. Untitled 16:58
******************************
Total playing time: 41:47

Extended info
Clear pro cassette below black jcard.
Catalogue number from Attic Shrines website is given as SHRINE-010.

No tracklist is given.

Tape-rip by Zero


Technical info
(IMG:https://metalarea.org/images/spectrogram/2019_Nov/b06ecd9b5562e4115a19c544a01fccd7.png)
Input File: 02 Untitled.mp3
Channels : 2
Sample Rate : 44100
Precision : 16-bit
Duration : 00:16:58.10 = 44898034 samples = 76357.2 CDDA sectors
File Size : 29.9M
Bit Rate : 235k
Sample Encoding: MPEG audio (layer I, II or III)
Comments :
Title=Untitled II
Artist=Lipitoare
Album=The Burial Blade
Tracknumber=02/2
Year=2018
Discnumber=1/1



Register


Thanks:
Go to the top of the page
  Insert nick Quick quote
+Quote Post

Reply to this topicStart new topic
1 User(s) are reading this topic (1 Guests and 0 Anonymous Users)
0 Members:

 



- Lo-Fi Version Support form
Copyrights and abuse reports form
Time is now: 20th November 2019 - 09:42:57