Welcome Guest ( Log In | Register )

> И неформату есть предел.

Рэп/хип-хоп/шансон/поп удаляются. Для них есть свои порталы.

 
Reply to this topicStart new topic
> Vrörsaath & Lipitoare - Heralded By Winter [split] (2019), Dungeon Synth | Dark Ambient
post Nov 10 2019, 22:20:14
Post #1

Правь статус, ####!111
**************
Group: Металариец
Posts: 3,991
Releases: 1019
From: Brazil
On Forums: 7 years 9 months
Thanks: 37738 time(s)
Brazil


(IMG:https://metalarea.org/images/audiocovers/2019_Nov/acov_tid330152_thumb.jpg)

*Artist: Vrörsaath & Lipitoare
*Album: Heralded By Winter [split]
*Year: 2019
*Genre: Dungeon Synth | Dark Ambient
*Country: Australia (IMG:https://metalarea.org/forum/style_images/flags/Australia.png) | Unknown (IMG:https://metalarea.org/forum/style_images/flags/Unknown.png)
*Format: mp3@VBR244kbps
*Size: 51MB

Tracklist:
Lipitoare:
1. The Secret Minister Of This Theatre Of Shadows 13:33
Vrörsaath:
2. Glimpses Of Dawn Through The Fog 15:19
******************************
Total playing time: 28:52



Extended info
Atrocity Altar

Tape-rip by Zero


Technical info
(IMG:https://metalarea.org/images/spectrogram/2019_Nov/f08f00b93b3a0be1203b8d76bf851bb8.png)
Input File: 01 The Secret Minister Of This Theatre Of Shadows.mp3
Channels : 2
Sample Rate : 44100
Precision : 16-bit
Duration : 00:13:33.11 = 35858283 samples = 60983.5 CDDA sectors
File Size : 25.6M
Bit Rate : 252k
Sample Encoding: MPEG audio (layer I, II or III)
Comments :
Title=The Secret Minister Of This Theatre Of Shadows
Artist=Lipitoare
Album=Heralded By Winter
Tracknumber=01/2
Year=2019
Discnumber=1/1



Register


Go to the top of the page
  Insert nick Quick quote
+Quote Post

Reply to this topicStart new topic
1 User(s) are reading this topic (1 Guests and 0 Anonymous Users)
0 Members:

 



- Lo-Fi Version Support form
Copyrights and abuse reports form
Time is now: 18th November 2019 - 14:24:46