Welcome Guest ( Log In | Register )

> И неформату есть предел.

Рэп/хип-хоп/шансон/поп удаляются. Для них есть свои порталы.

 
Reply to this topicStart new topic
> Vestibulum Vacuüi & Mental Decay - Vestibulum Vacuüi/Mental Decay [split] (2019), Dark Ambient | Dark Ambient (D4)
post Nov 10 2019, 22:37:22
Post #1

Правь статус, ####!111
**************
Group: Металариец
Posts: 3,995
Releases: 1019
From: Brazil
On Forums: 7 years 9 months
Thanks: 37798 time(s)
Brazil


(IMG:https://metalarea.org/images/audiocovers/2019_Nov/acov_tid330155_thumb.jpg)

*Artist: Vestibulum Vacuüi & Mental Decay
*Album: Vestibulum Vacuüi/Mental Decay [split]
*Year: 2019
*Genre: Dark Ambient | Dark Ambient
*Country: Netherlands (IMG:https://metalarea.org/forum/style_images/flags/Netherlands.png) | Australia (IMG:https://metalarea.org/forum/style_images/flags/Australia.png)
*Format: mp3@VBR261kbps
*Size: 57MB

Tracklist:
Vestibulum Vacuüi:
1. Untitled 00:22
2. Untitled 01:07
3. Untitled 02:29
4. Untitled 01:41
5. Untitled 00:15
6. Untitled 01:14
7. Untitled 01:49
8. Untitled 00:10
9. Untitled 02:14
10. Untitled 00:11
Mental Decay:
11. I Wander These Dark Halls, Alone and Tormented 17:59
******************************
Total playing time: 29:31

Extended info
The Throat

Tape-rip by Zero


Technical info
(IMG:https://metalarea.org/images/spectrogram/2019_Nov/bd57281b32c13c9817b3a425c26bd090.png)
Input File: 06 Untitled.mp3
Channels : 2
Sample Rate : 44100
Precision : 16-bit
Duration : 00:01:14.58 = 3288934 samples = 5593.43 CDDA sectors
File Size : 2.57M
Bit Rate : 276k
Sample Encoding: MPEG audio (layer I, II or III)
Comments :
Title=Untitled VI
Artist=Vestibulum Vacuüi
Album=Vestibulum Vacuüi / Mental Decay
Tracknumber=06/11
Year=2019
Discnumber=1/1



Register


Go to the top of the page
  Insert nick Quick quote
+Quote Post

Reply to this topicStart new topic
1 User(s) are reading this topic (1 Guests and 0 Anonymous Users)
0 Members:

 



- Lo-Fi Version Support form
Copyrights and abuse reports form
Time is now: 20th November 2019 - 11:08:35