Welcome Guest ( Log In | Register )

> И неформату есть предел.

Рэп/хип-хоп/шансон/поп удаляются. Для них есть свои порталы.

 
Reply to this topicStart new topic
> Vestibulum Vacuüi - Geworpen, Als Gepijnigd Door Een Doornenkrans [demo] (2018), Dark Ambient
post Nov 10 2019, 22:46:44
Post #1

Правь статус, ####!111
**************
Group: Металариец
Posts: 4,053
Releases: 1038
From: Brazil
On Forums: 7 years 10 months
Thanks: 38491 time(s)
Brazil


(IMG:https://metalarea.org/images/audiocovers/2019_Nov/acov_tid330156_thumb.jpg)

*Artist: Vestibulum Vacuüi
*Album: Geworpen, Als Gepijnigd Door Een Doornenkrans [demo]
*Year: 2018
*Genre: Dark Ambient
*Country: Netherlands (IMG:https://metalarea.org/forum/style_images/flags/Netherlands.png)
*Format: mp3@VBR230kbps
*Size: 29MB

Tracklist:
1. Geworpen in het gebrokene 01:16
2. Wat duurt, en wat niet duurt, is onderworpen 02:18
3. Ontheemd, en geen heimwaarts mogelijk 04:54
4. Bekommeringen, versleten dromen 02:52
5. En aldaar was zij heengegaan 05:44
******************************
Total playing time: 17:04

Extended info
The Throat

The spiritual successor to the Uriël cassette, Archaic Dark Ambient that perverts yet worships.

Tape-rip by Zero


Technical info
(IMG:https://metalarea.org/images/spectrogram/2019_Nov/f1f9f5f6c457aaf7466f92132ff150b1.png)
Input File: 01 Geworpen in het gebrokene.mp3
Channels : 2
Sample Rate : 44100
Precision : 16-bit
Duration : 00:01:18.18 = 3447914 samples = 5863.8 CDDA sectors
File Size : 2.31M
Bit Rate : 236k
Sample Encoding: MPEG audio (layer I, II or III)
Comments :
Title=Geworpen in het gebrokene
Artist=Vestibulum Vacuüi
Album=Geworpen, als gepijnigd door een doornenkrans
Tracknumber=01/5
Year=2018
Discnumber=1/1



Register


Go to the top of the page
  Insert nick Quick quote
+Quote Post

Reply to this topicStart new topic
1 User(s) are reading this topic (1 Guests and 0 Anonymous Users)
0 Members:

 



- Lo-Fi Version Support form
Copyrights and abuse reports form
Time is now: 9th December 2019 - 22:45:37