Welcome Guest ( Log In | Register )

> Releases Upload / Добавление релизов

Добавить релиз тут / Click here to add release
Рекомендованные обменники / Recommended file shares

> Amenti - Fuerza Vital (2019), Heavy/Power Metal (D4)
post Nov 11 2019, 17:47:03
Post #1

MDM-Thrash Metal
**************
Group: Металариец
Posts: 9,123
Releases: 754
From: Одесса
On Forums: 12 years 4 months
Thanks: 20098 time(s)
Ukraine


(IMG:http://metalarea.org/images/audiocovers/2019_Nov/acov_tid330193_thumb.jpg)

*Artist: Amenti
*Album: Fuerza Vital
*Year: 2019
*Genre: Heavy/Power Metal
*Country: Spain (IMG:http://metalarea.org/forum/style_images/flags/Spain.png)
*Format: mp3@CBR320kbps
*Size: 115MB

Tracklist:
1. Sueños 04:46
2. Ángel exterminador 05:26
3. Corazón bravo 05:57
4. Es tiempo de despertar 05:12
5. El enviado 04:30
6. Sin miedo 04:50
7. Fuerza vital 05:03
8. A sangre y fuego 04:54
9. Un solo camino 05:27
10. Renacer 03:56
******************************
Total playing time: 50:01


(IMG:http://metalarea.org/images/youtube.png)


Technical info
(IMG:http://metalarea.org/images/spectrogram/2019_Nov/368cf07a0f7f589aa581c41b4dd71327.png)
Input File: 02 - Angel Exterminador.mp3
Channels : 2
Sample Rate : 44100
Precision : 16-bit
Duration : 00:05:26.37 = 14392873 samples = 24477.7 CDDA sectors
File Size : 13.1M
Bit Rate : 320k
Sample Encoding: MPEG audio (layer I, II or III)
Comments :
Title=Angel Exterminador
Artist=Amenti
Album=Fuerza Vital
Tracknumber=2
Year=2019
Genre=Metal
Discnumber=1



Register


Go to the top of the page
  Insert nick Quick quote
+Quote Post
 
Start new topic
Replies (1 - 6)
post Nov 12 2019, 09:34:13
Post #2

тебе 29, а ты все реверсами балуешься
***********
Group: Металариец
Posts: 1,795
Releases: 4
On Forums: 11 years 4 months
Thanks: 532 time(s)
Russian Federation


Музыка отличная, но ИСПАААНЦЫЫЫ испанский язык ваще не к месту.
Go to the top of the page
  Insert nick Quick quote
+Quote Post
post Nov 13 2019, 13:58:48
Post #3

Dark Ambient Shoujo
**********
Group: Металариец
Posts: 1,201
Releases: 1
On Forums: 10 years 11 months
Thanks: 617 time(s)
Russian Federation


Испаноязычный павер должен был запрещен законодательно, я давно говорю!


Thanks:
Go to the top of the page
  Insert nick Quick quote
+Quote Post
post Nov 13 2019, 14:01:35
Post #4

Правь статус, ####!111
**************
Group: Металариец
Posts: 44,580
Releases: 688
On Forums: 10 years 6 months
Thanks: 35861 time(s)
Russian Federation


Только английский. Только победа.
Go to the top of the page
  Insert nick Quick quote
+Quote Post
post Nov 13 2019, 16:13:00
Post #5

MDM-Thrash Metal
**************
Group: Металариец
Posts: 9,123
Releases: 754
From: Одесса
On Forums: 12 years 4 months
Thanks: 20098 time(s)
Ukraine


ЦИТАТА(Dreamtale @ Nov 13 2019, 16:58:48) *
Испаноязычный павер должен был запрещен законодательно, я давно говорю!

(IMG:style_emoticons/default/m0114.gif)
Go to the top of the page
  Insert nick Quick quote
+Quote Post
post Nov 13 2019, 16:14:44
Post #6

Правь статус, ####!111
**************
Group: Металариец
Posts: 44,580
Releases: 688
On Forums: 10 years 6 months
Thanks: 35861 time(s)
Russian Federation


ЦИТАТА(Dreamtale @ Nov 13 2019, 15:58:48) *
Испаноязычный павер должен был запрещен законодательно, я давно говорю!


Был бы тут ща Адептус - наверняка бы бомбанул:

Как и любой другой (IMG:style_emoticons/default/1488.gif)
Go to the top of the page
  Insert nick Quick quote
+Quote Post
post Nov 16 2019, 17:42:46
Post #7

Перевозчик
**************
Group: Металариец
Posts: 3,081
Releases: 0
On Forums: 11 years 5 months
Thanks: 677 time(s)
Russian Federation


В целом я тоже не поклонник испаноязычных банд, но некоторые иногда, очень редко, умудряются делать талантливые вещи, которые можно и даже хочется слушать, несмотря на язык исполнения.

Сабж - музыка неплохая, но не настолько, чтобы терпеть это блеяние.
Go to the top of the page
  Insert nick Quick quote
+Quote Post

Reply to this topicStart new topic
2 User(s) are reading this topic (2 Guests and 0 Anonymous Users)
0 Members:

 



- Lo-Fi Version Support form
Copyrights and abuse reports form
Time is now: 12th December 2019 - 12:09:57