Welcome Guest ( Log In | Register )

> Releases Upload / Добавление релизов

Добавить релиз тут / Click here to add release
Рекомендованные обменники / Recommended file shares

> Powerwolf - Kiss Of The Cobra King [single] (2019), Power Metal (D)
post Nov 12 2019, 20:43:46
Post #1

MDM-Thrash Metal
**************
Group: Металариец
Posts: 9,119
Releases: 754
From: Одесса
On Forums: 12 years 3 months
Thanks: 20062 time(s)
Ukraine


(IMG:http://metalarea.org/images/audiocovers/2019_Nov/acov_tid330237_thumb.jpg)

*Artist: Powerwolf
*Album: Kiss Of The Cobra King [single]
*Year: 2019
*Genre: Power Metal
*Country: Germany (IMG:http://metalarea.org/forum/style_images/flags/Germany.png)
*Format: mp3@CBR320kbps
*Size: 19MB

Tracklist:
1. Kiss of the Cobra King (New Version 2019) 03:50
2. Army of the Night (Live) 03:46
******************************
Total playing time: 7:36


(IMG:http://metalarea.org/images/youtube.png)


Technical info
(IMG:http://metalarea.org/images/spectrogram/2019_Nov/93da0ef50e41859153b87a7699b04f70.png)
Input File: 01_powerwolf_kiss_of_the_cobra_king_new_version_2019.mp3
Channels : 2
Sample Rate : 44100
Precision : 16-bit
Duration : 00:03:49.24 = 10109484 samples = 17193 CDDA sectors
File Size : 10.2M
Bit Rate : 355k
Sample Encoding: MPEG audio (layer I, II or III)
Comments :
Title=Kiss of the Cobra King (New Version 2019)
Artist=Powerwolf
Album=Kiss of the Cobra King (New Version 2019)
Tracknumber=1/2
Year=2019
Genre=Rock
Discnumber=1/1



Register


Go to the top of the page
  Insert nick Quick quote
+Quote Post
 
Start new topic
Replies (1 - 1)
post Nov 14 2019, 19:20:14
Post #2

Маньяк
**********
Group: Металариец
Posts: 1,258
Releases: 0
From: Russian Federation - St.Petersburg
On Forums: 10 years 9 months
Thanks: 297 time(s)
Russian Federation


Сильный видос! (IMG:style_emoticons/default/17.gif)
Go to the top of the page
  Insert nick Quick quote
+Quote Post

Reply to this topicStart new topic
2 User(s) are reading this topic (2 Guests and 0 Anonymous Users)
0 Members:

 



- Lo-Fi Version Support form
Copyrights and abuse reports form
Time is now: 9th December 2019 - 08:20:19