Welcome Guest ( Log In | Register )

> Adrian Benegas - The Revenant (2019), Symphonic Metal
post Nov 14 2019, 13:14:22
Post #1

Serial Uploader
Group Icon
Group: V.I.P
Posts: 37,208
Releases: 35388
From: Lithuania
On Forums: 12 years 1 month
Thanks: 421291 time(s)
Lithuania


(IMG:http://metalarea.org/images/audiocovers/2019_Nov/acov_tid330298_thumb.jpg)

*Artist: Adrian Benegas
*Album: The Revenant
*Year: 2019
*Genre: Symphonic Metal
*Country: Germany (IMG:http://metalarea.org/forum/style_images/flags/Germany.png)
*Format: mp3@CBR320kbps
*Size: 101MB

Tracklist:
01. Servants of the Death
02. Cadavria
03. Face to Face
04. The Enemy Within
05. Inferno
06. A Change of Heart
07. Carrier of the Sunlight
08. The Light of My Dreams
09. The Revenant
******************************
Total playing time: 43:56


(IMG:http://metalarea.org/images/youtube.png)

Technical info
(IMG:http://metalarea.org/images/spectrogram/2019_Nov/e0225a428b3edc04c22902047965d92a.png)
Input File: 02 - Cadavria.mp3
Channels : 2
Sample Rate : 44100
Precision : 16-bit
Duration : 00:06:48.55 = 18017099 samples = 30641.3 CDDA sectors
File Size : 16.4M
Bit Rate : 321k
Sample Encoding: MPEG audio (layer I, II or III)
Comments :
Title=Cadavria
Artist=Adrian Benegas/Henning Basse/Zuberoa Aznárez
Album=The Revenant
Tracknumber=2
Year=2019
Genre=Rock/Hard Rock/Metal
Discnumber=1



Register


Go to the top of the page
  Insert nick Quick quote
+Quote Post
 
Start new topic
Replies (1 - 4)
post Nov 15 2019, 10:27:23
Post #2

hearer & reader
**************
Group: Металариец
Posts: 8,797
Releases: 144
From: Moscow
On Forums: 12 years 10 months
Thanks: 8964 time(s)
Russian Federation


С утра он был ещё парагвайцем.
Go to the top of the page
  Insert nick Quick quote
+Quote Post
post Nov 23 2019, 12:59:33
Post #3
BAN
Banned till
Jul 16 2020, 15:35:27



Отлично, например
Go to the top of the page
  Insert nick Quick quote
+Quote Post
post Jun 30 2020, 19:54:40
Post #4

Четыре Литра
****
Group: Металариец
Posts: 310
Releases: 0
On Forums: 11 months 2 weeks
Thanks: 2 time(s)
Argentina


link caido
Go to the top of the page
  Insert nick Quick quote
+Quote Post
post Jun 30 2020, 20:28:50
Post #5

Добрый
**************
Group: Металариец
Posts: 4,001
Releases: 0
On Forums: 2 years 1 week
Thanks: 6801 time(s)
Russian Federation


101 mb/320 kbps
Register


Thanks:
(1) varlam4,
Go to the top of the page
  Insert nick Quick quote
+Quote Post

Reply to this topicStart new topic
2 User(s) are reading this topic (2 Guests and 0 Anonymous Users)
0 Members:

 



- Lo-Fi Version Support form
Copyrights and abuse reports form
Time is now: 8th July 2020 - 22:33:45