Welcome Guest ( Log In | Register )

> И неформату есть предел.

Рэп/хип-хоп/шансон/поп удаляются. Для них есть свои порталы.

> Faun - Marchen & Mythen (2019), Medieval Folk Rock (D11)
post Nov 14 2019, 13:46:45
Post #1

Serial Uploader
Group Icon
Group: V.I.P
Posts: 36,592
Releases: 34781
From: Lithuania
On Forums: 11 years 6 months
Thanks: 407309 time(s)
Lithuania


(IMG:http://metalarea.org/images/audiocovers/2019_Nov/acov_tid330304_thumb.jpg)

*Artist: Faun
*Album: Marchen & Mythen
*Year: 2019
*Genre: Medieval Folk Rock
*Country: Germany (IMG:http://metalarea.org/forum/style_images/flags/Germany.png)
*Format: mp3@CBR320kbps
*Size: 148MB

Tracklist:
01. Es war einmal... 02:42
02. Rosenrot 03:35
03. Seemann 04:35
04. Hagazussa 04:59
05. Sieben Raben 04:33
06. Aschenbrodel 03:31
07. Die weisse Dame 04:44
08. Jorinde 03:55
09. Spieglein, Spieglein 03:43
10. Drei Wanderer (feat. Versengold) 03:16
11. Holla 06:22
12. The Lily 05:30
13. Falada 03:59
14. Thalia 04:30
15. Sieben Raben (Acoustic) 04:22
******************************
Total playing time: 1:04:16


(IMG:http://metalarea.org/images/youtube.png)

Technical info
(IMG:http://metalarea.org/images/spectrogram/2019_Nov/ef451b16885e79f100dacb454ad7010c.png)
Input File: 2 - Rosenrot.mp3
Channels : 2
Sample Rate : 44100
Precision : 16-bit
Duration : 00:03:34.82 = 9473386 samples = 16111.2 CDDA sectors
File Size : 8.66M
Bit Rate : 322k
Sample Encoding: MPEG audio (layer I, II or III)
Comments :
Title=Rosenrot
Artist=Faun
Album=Märchen & Mythen
Tracknumber=2
Year=2019
Genre=Pop
Discnumber=1



Register


Go to the top of the page
  Insert nick Quick quote
+Quote Post
 
Start new topic
Replies (1 - 3)
post Nov 15 2019, 12:45:34
Post #2

Три Литра
***
Group: Завсегдатай
Posts: 267
Releases: 1
On Forums: 10 years 1 month
Thanks: 83 time(s)
Russian Federation


мда...
Что-то совсем не зашло по привью. Ну а новая вокалистка прям бесит.... пискля...
А ведь "мидгард" и "луну" заслушал до дыр.
Прям расстроился
(IMG:style_emoticons/default/6.gif)
Go to the top of the page
  Insert nick Quick quote
+Quote Post
post Nov 15 2019, 20:15:43
Post #3

к приему виски готов
*******
Group: Металариец
Posts: 749
Releases: 2
From: Украина
On Forums: 10 years 9 months
Thanks: 439 time(s)
Ukraine


Dragonballz точно подмечено. такой faun нам не нужен.
Go to the top of the page
  Insert nick Quick quote
+Quote Post
post Nov 22 2019, 11:35:26
Post #4

Group: Подсевший
Posts: 42
Releases: 0
On Forums: 1 month 1 week
Thanks: 12 time(s)
Unknown


Очень слабо. С первыми альбомами даже рядом не стоит. К сожалению....
Go to the top of the page
  Insert nick Quick quote
+Quote Post

Reply to this topicStart new topic
1 User(s) are reading this topic (1 Guests and 0 Anonymous Users)
0 Members:

 



- Lo-Fi Version Support form
Copyrights and abuse reports form
Time is now: 11th December 2019 - 00:55:59