Welcome Guest ( Log In | Register )

> Releases Upload / Добавление релизов

Добавить релиз тут / Click here to add release
Рекомендованные обменники / Recommended file shares

 
Reply to this topicStart new topic
> The Holy Hater - The Sinner [ep] (2019), Melodic Death Metal
post Nov 14 2019, 21:51:41
Post #1

MDM-Thrash Metal
**************
Group: Металариец
Posts: 9,127
Releases: 755
From: Одесса
On Forums: 12 years 4 months
Thanks: 20118 time(s)
Ukraine


(IMG:http://metalarea.org/images/audiocovers/2019_Nov/acov_tid330335_thumb.jpg)

*Artist: The Holy Hater
*Album: The Sinner [ep]
*Year: 2019
*Genre: Melodic Death Metal
*Country: Mexico (IMG:http://metalarea.org/forum/style_images/flags/Mexico.png)
*Format: mp3@CBR320kbps
*Size: 31MB

Tracklist:
1. Wolf in Mourn 04:08
2. Feed the Flames 02:24
3. Rest in Pieces 03:59
4. It Is Alive 04:12
******************************
Total playing time: 14:43


(IMG:http://metalarea.org/images/youtube.png)
(IMG:http://metalarea.org/images/youtube.png)
(IMG:http://metalarea.org/images/youtube.png)

Technical info
(IMG:http://metalarea.org/images/spectrogram/2019_Nov/a724cc897395a0f537bc25d27bac555f.png)
Input File: 02_the_holy_hater_feed_the_flames.mp3
Channels : 2
Sample Rate : 44100
Precision : 16-bit
Duration : 00:02:24.52 = 6373332 samples = 10839 CDDA sectors
File Size : 5.86M
Bit Rate : 324k
Sample Encoding: MPEG audio (layer I, II or III)
Comments :
Title=Feed the Flames
Artist=The Holy Hater
Album=The Sinner (EP)
Tracknumber=2
Year=2019
Genre=9



Register


Go to the top of the page
  Insert nick Quick quote
+Quote Post

Reply to this topicStart new topic
2 User(s) are reading this topic (2 Guests and 0 Anonymous Users)
0 Members:

 



- Lo-Fi Version Support form
Copyrights and abuse reports form
Time is now: 14th December 2019 - 12:00:56