Welcome Guest ( Log In | Register )

> Delirium - Ilusión (2019), Melodic Death Metal
post Nov 16 2019, 17:11:34
Post #1

Правь статус, ####!111
**************
Group: Металариец
Posts: 21,253
Releases: 14534
From: Г.Харьков
On Forums: 7 years 10 months
Thanks: 259063 time(s)
Unknown


(IMG:http://metalarea.org/images/audiocovers/2019_Nov/acov_tid330416_thumb.jpg)

*Artist: Delirium
*Album: Ilusión
*Year: 2019
*Genre: Melodic Death Metal
*Country: Spain (IMG:http://metalarea.org/forum/style_images/flags/Spain.png)
*Format: mp3@CBR320kbps
*Size: 71MB

Tracklist:
1. Hijoputa 04:48
2. Ilusión 04:33
3. Reflejo 04:20
4. Fénix 04:38
5. Cyberkids 05:50
6. Fin de la partida 06:32
******************************
Total playing time: 30:41




Extended info
Salva Bass
Patxi Drums
Samuel Guitars
J. Berenguer Guitars
Antonio Vocals


Technical info
(IMG:http://metalarea.org/images/spectrogram/2019_Nov/12a7f356aa1c1acbe27d9fc0e2bca16e.png)
Input File: 03 - Reflejo.mp3
Channels : 2
Sample Rate : 44100
Precision : 16-bit
Duration : 00:04:21.08 = 11513716 samples = 19581.1 CDDA sectors
File Size : 10.7M
Bit Rate : 326k
Sample Encoding: MPEG audio (layer I, II or III)
Comments :
Title=Reflejo
Artist=Delirium
Album=Ilusión
Tracknumber=3
Year=2019



Register


Go to the top of the page
  Insert nick Quick quote
+Quote Post
 
Start new topic
Replies (1 - 4)
post Nov 17 2019, 19:37:25
Post #2

Правь статус, ####!111
**************
Group: Металариец
Posts: 21,253
Releases: 14534
From: Г.Харьков
On Forums: 7 years 10 months
Thanks: 259063 time(s)
Unknown


Cloud Mail 320
Register
Go to the top of the page
  Insert nick Quick quote
+Quote Post
post Nov 20 2019, 09:40:14
Post #3

MDMщик
**************
Group: Металариец
Posts: 6,088
Releases: 386
From: Asgaard
On Forums: 14 years 4 months
Thanks: 5990 time(s)
Saint Pierre and Miquelon


скучновато имхо, на пару раз послушать можно
Go to the top of the page
  Insert nick Quick quote
+Quote Post
post Nov 20 2019, 10:01:15
Post #4

ГОСПОДЬ
**************
Group: Металариец
Posts: 3,817
Releases: 162
On Forums: 9 years 7 months
Thanks: 5443 time(s)
Unknown


ЦИТАТА(SnaP @ Nov 20 2019, 11:40:14) *
скучновато имхо, на пару раз послушать можно

Вот послушал - скучно. Нет, послушаю ка я второй раз, чтоб ещё скучнее мне стало!
Go to the top of the page
  Insert nick Quick quote
+Quote Post
post Dec 10 2019, 14:41:23
Post #5

Ъ
**************
Group: Металариец
Posts: 10,012
Releases: 9
On Forums: 11 years 2 months
Thanks: 1986 time(s)
Sweden


Третьесорт.
Go to the top of the page
  Insert nick Quick quote
+Quote Post

Reply to this topicStart new topic
1 User(s) are reading this topic (1 Guests and 0 Anonymous Users)
0 Members:

 



- Lo-Fi Version Support form
Copyrights and abuse reports form
Time is now: 3rd April 2020 - 05:01:24