Welcome Guest ( Log In | Register )

> Releases Upload / Добавление релизов

Добавить релиз тут / Click here to add release
Рекомендованные обменники / Recommended file shares

 
Reply to this topicStart new topic
> Water Into Blood - Become The Disease (2018), Groove/Death Metal/Hardcore
post Nov 18 2019, 11:38:05
Post #1

Девять Литров
*********
Group: Металариец
Posts: 994
Releases: 364
From: Саранск
On Forums: 8 years 7 months
Thanks: 2933 time(s)
Russian Federation


(IMG:https://metalarea.org/images/audiocovers/2019_Nov/acov_tid330494_thumb.jpg)

*Artist: Water Into Blood
*Album: Become The Disease
*Year: 2018
*Genre: Groove/Death Metal/Hardcore
*Country: United States (IMG:https://metalarea.org/forum/style_images/flags/United%20States.png)
*Format: mp3@CBR320kbps
*Size: 85MB

Tracklist:
1. Bitter End 02:26
2. Warrior Culture 03:01
3. Hell is Red 02:00
4. Kalopsia. Malison. Threnody. 05:00
5. Meat 03:48
6. Disrupters 03:58
7. Become The Disease 04:19
8. Interlude in B Minor 05:02
9. Solaromancy II 07:23
******************************
Total playing time: 36:57




Technical info
(IMG:https://metalarea.org/images/spectrogram/2019_Nov/476f65ae9b54069160f4bb7d0caf635d.png)
Input File: 6 - Disrupters.mp3
Channels : 2
Sample Rate : 44100
Precision : 16-bit
Duration : 00:03:58.49 = 10517277 samples = 17886.5 CDDA sectors
File Size : 9.54M
Bit Rate : 320k
Sample Encoding: MPEG audio (layer I, II or III)
Comments :
Title=Disrupters
Artist=Water Into Blood
Album=Become The Disease
Tracknumber=6
Year=2018
Genre=Metal



Register


Go to the top of the page
  Insert nick Quick quote
+Quote Post

Reply to this topicStart new topic
2 User(s) are reading this topic (2 Guests and 0 Anonymous Users)
0 Members:

 



- Lo-Fi Version Support form
Copyrights and abuse reports form
Time is now: 13th December 2019 - 22:56:39