Welcome Guest ( Log In | Register )

> Sandglass - Vultures (2019), Melodic Death/Groove Metal
post Nov 18 2019, 20:30:14
Post #1

Правь статус, ####!111
**************
Group: Металариец
Posts: 20,674
Releases: 14117
From: Г.Харьков
On Forums: 7 years 9 months
Thanks: 249419 time(s)
Unknown


(IMG:http://metalarea.org/images/audiocovers/2019_Nov/acov_tid330516_thumb.jpg)

*Artist: Sandglass
*Album: Vultures
*Year: 2019
*Genre: Melodic Death/Groove Metal
*Country: Belarus (IMG:http://metalarea.org/forum/style_images/flags/Belarus.png)
*Format: mp3@CBR320kbps
*Size: 92MB

Tracklist:
1. Holy Wood 05:19
2. Shards of memory 05:26
3. Conversion 04:49
4. Bow to none 04:50
5. Wings 04:06
6. I 01:59
7. The Gales 04:23
8. Vultures 04:14
9. Bulletproof skin 05:17
******************************
Total playing time: 40:23




Extended info
Philip Martysyuk - vocals
Alexander Babich - guitar, backing vocals
Oleg Shklyaev - guitar
Victor Kotovsky - bass



Technical info
(IMG:http://metalarea.org/images/spectrogram/2019_Nov/42e6aa2679f217bdaf485bab243f8ae1.png)
Input File: 03 - Conversion.mp3
Channels : 2
Sample Rate : 44100
Precision : 16-bit
Duration : 00:04:49.44 = 12764304 samples = 21708 CDDA sectors
File Size : 11.6M
Bit Rate : 320k
Sample Encoding: MPEG audio (layer I, II or III)
Comments :
Title=Conversion
Artist=Sandglass
Album=Vultures
Tracknumber=3
Year=2019
Genre=Metal



Register


Go to the top of the page
  Insert nick Quick quote
+Quote Post
 
Start new topic
Replies (1 - 1)
post Dec 10 2019, 14:28:16
Post #2

Ъ
**************
Group: Металариец
Posts: 9,925
Releases: 9
On Forums: 11 years 1 month
Thanks: 1967 time(s)
Sweden


Третьесорт, превью унылое.


Thanks:
(1) Foneg,
Go to the top of the page
  Insert nick Quick quote
+Quote Post

Reply to this topicStart new topic
2 User(s) are reading this topic (2 Guests and 0 Anonymous Users)
0 Members:

 



- Lo-Fi Version Support form
Copyrights and abuse reports form
Time is now: 25th February 2020 - 09:34:36