Welcome Guest ( Log In | Register )

> Две Тысячи Крестов - Душно [ep] (2019), Melodic Black Metal
post Nov 18 2019, 20:32:50
Post #1

 
********
Group: Металариец
Posts: 840
Releases: 87
On Forums: 11 years 11 months
Thanks: 2300 time(s)
Russian Federation


(IMG:http://metalarea.org/images/audiocovers/2019_Nov/acov_tid330517_thumb.jpg)

*Artist: Две Тысячи Крестов
*Album: Душно [ep]
*Year: 2019
*Genre: Melodic Black Metal
*Country: Russian Federation (IMG:http://metalarea.org/forum/style_images/flags/Russian%20Federation.png)
*Format: mp3@CBR320kbps
*Size: 31MB

Tracklist:
1. Intro 1:34
2. Душно 4:16
3. Никто Из Вас Здесь Не Был 5:23
4. Outro 1:39
******************************
Total playing time: 12:52



Technical info
(IMG:http://metalarea.org/images/spectrogram/2019_Nov/50c9ebe12535bd241bfbf8a600718edb.png)
Input File: 02. Душно.mp3
Channels : 2
Sample Rate : 44100
Precision : 16-bit
Duration : 00:04:15.91 = 11285719 samples = 19193.4 CDDA sectors
File Size : 10.4M
Bit Rate : 326k
Sample Encoding: MPEG audio (layer I, II or III)
Comments :
Title=Душно
Artist=Две Тысячи Крестов
Album=Душно
Tracknumber=2
Year=2019
Genre=Melodic Black Metal



Register


Go to the top of the page
  Insert nick Quick quote
+Quote Post
 
Start new topic
Replies (1 - 4)
post Nov 19 2019, 01:00:14
Post #2

Литр
*
Group: Подсевший
Posts: 61
Releases: 0
On Forums: 1 year 3 months
Thanks: 8 time(s)
Russian Federation


Музыка определённо заслуживает внимания.
Понравился сопроводительный текст:

"Повесть о лёгких наркотических средствах, приём которых, зачастую приводит, цитирую: «в зону медленного снегопада»,и конечно же, к Абстинентному синдрому, который возникает при полном прекращении приема психоактивного вещества. Но гораздо хуже, когда с этим веществом перебор, а скорая помощь, как назло опаздывает или, вовсе, не приезжает. Отъехал в лесопарковой зоне, под деревом и попал туда, где никто из нас не был.".


Thanks:
(2) Brann, Foneg,
Go to the top of the page
  Insert nick Quick quote
+Quote Post
post Nov 19 2019, 08:27:34
Post #3

тебе 29, а ты все реверсами балуешься
***********
Group: Металариец
Posts: 1,899
Releases: 4
On Forums: 11 years 8 months
Thanks: 624 time(s)
Russian Federation


И вправду круто.
Год релиза только 2016, а не 2019
Go to the top of the page
  Insert nick Quick quote
+Quote Post
post Nov 20 2019, 08:45:54
Post #4

Grind the Human Scum
*********
Group: Металариец
Posts: 992
Releases: 18
On Forums: 13 years 2 months
Thanks: 931 time(s)
Russian Federation


Anti-drugs clan - звучит даже поганее, чем если бы было Lyrical themes christianity ((
автор этих испражнений, если ты это читаешь, то внемли здравому совету - в никнейме после Х поставь долгожданную S, и вот, все встало на свои места, и вуаля, теперь ты не названный палач, а закономерная канцелярская крыса, и пиши в стол, не позорься.(IMG:style_emoticons/default/bye.gif)


Thanks:
Go to the top of the page
  Insert nick Quick quote
+Quote Post
post Nov 20 2019, 08:49:00
Post #5

Правь статус, ####!111
**************
Group: Металариец
Posts: 45,591
Releases: 703
On Forums: 10 years 9 months
Thanks: 37511 time(s)
Russian Federation


ЦИТАТА(Evilded @ Nov 20 2019, 10:45:54) *
Anti-drugs clan - звучит даже поганее, чем если бы было Lyrical themes christianity ((


(IMG:style_emoticons/default/dooo.gif)

Да тут уже по названию группы и обложки все понятно.

Нахрен вообще такое шротчяанство качать и слушать.
Go to the top of the page
  Insert nick Quick quote
+Quote Post

Reply to this topicStart new topic
2 User(s) are reading this topic (2 Guests and 0 Anonymous Users)
0 Members:

 



- Lo-Fi Version Support form
Copyrights and abuse reports form
Time is now: 28th March 2020 - 12:31:08